img image001 image001 image001 image001 image001 image001 image001 image001 image001 image001 image001 image001 image001 image001 image001

Planets Sun Sun Sun
Статистика раздачи
Автор: Nickolas3434 | Размер: 4.37 ГБ | Добавлен: 20 май 2015
Раздают: 329    Качают: 63
Скачать торрент
Скачать торрент
Описание торрента

СообщениеДобавлено: 20 май 2015 

Касаясь пустоты / Touching the Void (2003) BDRip 720p
Релиз от HQ-ViDEO

Информация о фильме
Название: Касаясь пустоты
Оригинальное название: Touching the Void
Год выхода: 2003
Жанр: документальный, драма, приключения, спорт
Режиссер: Кевин МакДональд /Kevin Macdonald/
В ролях: Брендан Маккей /Brendan Mackey/, Николас Аарон /Nicholas Aaron/, Ричард Хаукинг /Richard Hawking/, Джо Симпсон /Joe Simpson/, Саймон Йэтс /Simon Yates/, Олли Руалль /Ollie Ryall/...
О фильме:
Фильм — экранизация бестселлера известного альпиниста Джо Симпсона — рассказывает одну из самых невероятных, реально происходивших историй из жизни альпинистов. В книге описывается восхождение Симпсона и его друга Саймона Йетса на одну из вершин перуанских Анд в 1985 году. Двое молодых амбициозных альпинистов решают покорить удаленный и опасный западный склон Сиула Гранде, высотой 7 тысяч метров. При спуске в плохую погоду Симпсон падает и ломает ногу. В борьбе за выживание молодые люди вынуждены ежеминутно принимать непростые решения. Симпсон и Йетс вместе возвращаются на место событий, чтобы поведать свою историю перед объективом камеры.

Страна: Великобритая, США
Продолжительность: 01:46:23
Перевод: Русский профессиональный, многоголосый + Оригинальная, английская дорожка (отдельно)
Файл
Кодек: MKV, H.264
Качество: BDRip 720p (Source: Blu-ray Disc)
Видео: 5314 kbps; 0.240 bit/pixel; 1280 x 720; 16:9; 23.976 fps
Звук #1: AC3 Dolby Digital; 448.00 kbps, 6 Ch - RUS MVO
Звук #2: AC3 Dolby Digital; 448.00 kbps, 6 Ch - ENG (отдельно / скачать с Яндекс Диск)
Субтитры: Русские, Английские.
Размер: 4.37 GB
SAMPLE / скачать с Яндекс Диск
General
Complete name : Kasajas.Pustoty.2003.RUS.BDRip.h264.720p.AC3.-HQ-ViDEO.mkv
Format : Matroska
File size : 4.37 GiB
Duration : 1h 46mn
Overall bit rate : 5 879 Kbps
Movie name : Touching the Void (2003)
Encoded date : UTC 2010-09-06 08:40:21
Writing application : mkvmerge v3.3.0 ('Language') built on Mar 24 2010 14:59:24
Writing library : libebml v0.8.0 + libmatroska v0.9.0
Video
ID : 1
Format : AVC
Format/Info : Advanced Video Codec
Format profile : High@L4.1
Format settings, CABAC : Yes
Format settings, ReFrames : 6 frames
Muxing mode : Container profile=Unknown@4.1
Codec ID : V_MPEG4/ISO/AVC
Duration : 1h 46mn
Bit rate : 5 314 Kbps
Width : 1 280 pixels
Height : 720 pixels
Display aspect ratio : 16:9
Frame rate : 23.976 fps
Resolution : 8 bits
Colorimetry : 4:2:0
Scan type : Progressive
Bits/(Pixel*Frame) : 0.240
Stream size : 3.95 GiB (90%)
Title : Encoded by GYN
Audio
ID : 2
Format : AC-3
Format/Info : Audio Coding 3
Codec ID : A_AC3
Duration : 1h 46mn
Bit rate mode : Constant
Bit rate : 448 Kbps
Channel(s) : 6 channels
Channel positions : Front: L C R, Surround: L R, LFE
Sampling rate : 48.0 KHz
Stream size : 341 MiB (8%)
Title : MVO
Language : Russian
Text #1
ID : 3
Format : UTF-8
Codec ID : S_TEXT/UTF8
Codec ID/Info : UTF-8 Plain Text
Language : Russian
Text #2
ID : 4
Format : UTF-8
Codec ID : S_TEXT/UTF8
Codec ID/Info : UTF-8 Plain Text
Language : English





Релиз от: HQ-ViDEO
Автор рипа: GYN



   Похожие торренты   Торрент   Размер 
В этой теме нет новых непрочитанных сообщений. Касаясь пустоты / Touching the Void (2003) BDRip 720p

203 | 33

4.37 ГБ

В этой теме нет новых непрочитанных сообщений. Касаясь пустоты / Touching The Void (2003) BDRip

146 | 33

2 ГБ

В этой теме нет новых непрочитанных сообщений. Касаясь пустоты / Touching the Void (2003) HDRip

103 | 108

1.52 ГБ

В этой теме нет новых непрочитанных сообщений. Касаясь пустоты / Touching the Void (2003) DVD9

11 | 2

6.4 ГБ

В этой теме нет новых непрочитанных сообщений. Касаясь пустоты / Touching the Void (2003) DVDRip от Scarabey | Р

498 | 25

1.45 ГБ

В этой теме нет новых непрочитанных сообщений. Касаясь пустоты / Touching the Void (2003) DVDRip от Scarabey | Р

58 | 15

743.93 МБ

В этой теме нет новых непрочитанных сообщений. Касаясь пустоты / Touching the Void (2003) BDRemux 1080p от HDClub | P

32 | 9

19.63 ГБ




Вы не можете начинать темы
Вы не можете отвечать на сообщения
Вы не можете редактировать свои сообщения
Вы не можете удалять свои сообщения
Вы не можете добавлять вложения

Перейти:  
Для Мосгорсуда, Роскомнадзора и рекламодателей: mosgorsud-torrent[собачка]yandex.ru
 Вход
ppkBB3cker v.2 © 2008-2014 @ PPK
[ Time : 0.049s | 14 Queries | GZIP : Off ]

Торрент трекер RUTOR.IN, Не можете зайти на rutor.org? Какой новый адрес рутор? Какое зеркало рутор? Не работает rutor.org и зеркала? Тогда наш торрент специально для вас. Rutor.in неофициальное зеркало rutor. В случае если у Вас заблокирован rutor или вдруг Вы не можете на него зайти, то Вы без труда сможете скачать бесплатно и без рекламы последние новинки кино, игр, сериалов и прочего у нас, на Rutor.in. Не нужно использовать прокси, чтобы зайти на рутор, достаточно воспользоваться нашим ресурсом. Все новые фильмы, игры, сериалы, книги и музыка за 2013 и 2014 годы через торрент бесплатно. Скачивайте фильмы в хорошем качестве, игры для пк, xbox, playstation без регистрации. У нас вы найдете новые Зарубежные сериалы и Русские сериалы 2013, 2014, 2015 годов. Оставайтесь с нами, качайте любимые фильмы, игры, сериалы, книги и музыку.