img image001 image001 image001 image001 image001 image001 image001 image001 image001 image001 image001 image001 image001 image001 image001

Planets Sun Sun Sun
Статистика раздачи
Автор: Nickolas3434 | Размер: 5.3 ГБ | Добавлен: 03 июн 2015
Раздают: 84    Качают: 11
Скачать торрент
Скачать торрент
Описание торрента

СообщениеДобавлено: 03 июн 2015 


Название: Акулы: Властелины подводного мира
Оригинальное название: Sharks: Kings of the Ocean
Год выпуска: 2013
Страна: Германия
Жанр: документальный
Продолжительность: 00:51:13
Перевод: профессиональный одноголосый
Режиссёр: Юрген Климмек
Описание: Акула - признанная королева подводного мира, безраздельно властвующая на просторах мирового океана. О её силе и жестокости слагают легенды. Эти гигантские рыбы существовали на Земле задолго до появления человека. На протяжении многих веков одно упоминание о них внушало людям благоговейный ужас. Это кровожадное и опасное существо показано в естественной среде обитания. Экстремальные съемки раскроют тайны особенностей жизни и поведения этих грациозных и, по-своему, прекрасных обитателей нашей планеты...
Качество: BDRip 1080p Сравнение с исходником
Формат: MKV
Видео: MPEG-4 AVC, 11.2 Mбит/с, 1920x1080, 23,976 кадра/с
Аудио 1: русский, DTS, 1509 kbps, 6 ch, 48 kHz [профессиональный одноголосый]
Аудио 2: английский, DTS, 1509 kbps, 6 ch, 48 kHz [оригинал]
Субтитры: русские
Общее
Уникальный идентификатор : 238593759518386378662973170822463287644 (0xB37F7C91D1F49F3CB6F80E8A818AF15C)
Полное имя : D:VideoАкулы.2013.BDRip.1080p.mkv
Формат : Matroska
Версия формата : Version 4 / Version 2
Размер файла : 5,30 Гбайт
Продолжительность : 52 м.
Общий поток : 14,5 Мбит/сек
Название фильма : BDRip -- STarankov
Дата кодирования : UTC 2015-05-29 01:47:06
Программа кодирования : mkvmerge v7.9.0 ('Birds') 64bit
Библиотека кодирования : libebml v1.3.1 + libmatroska v1.4.2
DURATION : 00:49:38.141000000
NUMBER_OF_FRAMES : 594
NUMBER_OF_BYTES : 53313
_STATISTICS_WRITING_APP : mkvmerge v7.9.0 ('Birds') 64bit
_STATISTICS_WRITING_DATE_UTC : 2015-05-29 01:47:06
_STATISTICS_TAGS : BPS DURATION NUMBER_OF_FRAMES NUMBER_OF_BYTES
Видео
Идентификатор : 1
Формат : AVC
Формат/Информация : Advanced Video Codec
Профиль формата : High@L4.1
Параметр CABAC формата : Да
Параметр ReFrames формата : 4 кадра
Идентификатор кодека : V_MPEG4/ISO/AVC
Продолжительность : 52 м.
Битрейт : 11,2 Мбит/сек
Ширина : 1920 пикселей
Высота : 1080 пикселей
Соотношение сторон : 16:9
Режим частоты кадров : Постоянный
Частота кадров : 23,976 кадра/сек
Цветовое пространство : YUV
Субдискретизация насыщенности : 4:2:0
Битовая глубина : 8 бит
Тип развёртки : Прогрессивная
Бит/(Пиксели*Кадры) : 0.225
Размер потока : 4,09 Гбайт (77%)
Библиотека кодирования : x264 core 146 r2538 121396c
Настройки программы : cabac=1 / ref=4 / deblock=1:-1:-1 / analyse=0x3:0x113 / me=umh / subme=10 / psy=1 / psy_rd=1.00:0.15 / mixed_ref=1 / me_range=32 / chroma_me=1 / trellis=2 / 8x8dct=1 / cqm=0 / deadzone=21,11 / fast_pskip=1 / chroma_qp_offset=-3 / threads=6 / lookahead_threads=1 / sliced_threads=0 / nr=0 / decimate=1 / interlaced=0 / bluray_compat=0 / constrained_intra=0 / bframes=8 / b_pyramid=2 / b_adapt=2 / b_bias=0 / direct=1 / weightb=1 / open_gop=0 / weightp=2 / keyint=230 / keyint_min=23 / scenecut=40 / intra_refresh=0 / rc_lookahead=40 / rc=crf / mbtree=0 / crf=18.0 / qcomp=0.60 / qpmin=0 / qpmax=69 / qpstep=4 / vbv_maxrate=40000 / vbv_bufsize=50000 / crf_max=0.0 / nal_hrd=none / filler=0 / ip_ratio=1.40 / pb_ratio=1.30 / aq=1:1.00
Язык : English
Default : Да
Forced : Нет
DURATION : 00:52:22.932000000
NUMBER_OF_FRAMES : 75355
NUMBER_OF_BYTES : 4532833589
_STATISTICS_WRITING_APP : mkvmerge v7.9.0 ('Birds') 64bit
_STATISTICS_WRITING_DATE_UTC : 2015-05-29 01:47:06
_STATISTICS_TAGS : BPS DURATION NUMBER_OF_FRAMES NUMBER_OF_BYTES
Аудио #1
Идентификатор : 2
Формат : DTS
Формат/Информация : Digital Theater Systems
Режим : 16
Параметр Endianness формата : Big
Идентификатор кодека : A_DTS
Продолжительность : 52 м.
Вид битрейта : Постоянный
Битрейт : 1509 Кбит/сек
Каналы : 6 каналов
Расположение каналов : Front: L C R, Side: L R, LFE
Частота : 48,0 КГц
Битовая глубина : 16 бит
Метод сжатия : С потерями
Размер потока : 565 Мбайт (10%)
Заголовок : профессиональный одноголосый
Язык : Russian
Default : Да
Forced : Нет
Аудио #2
Идентификатор : 3
Формат : DTS
Формат/Информация : Digital Theater Systems
Режим : 16
Параметр Endianness формата : Big
Идентификатор кодека : A_DTS
Продолжительность : 52 м.
Вид битрейта : Постоянный
Битрейт : 1509 Кбит/сек
Каналы : 6 каналов
Расположение каналов : Front: L C R, Side: L R, LFE
Частота : 48,0 КГц
Битовая глубина : 16 бит
Метод сжатия : С потерями
Размер потока : 565 Мбайт (10%)
Заголовок : Original
Язык : English
Default : Нет
Forced : Нет
Текст
Идентификатор : 4
Формат : UTF-8
Идентификатор кодека : S_TEXT/UTF8
Идентификатор кодека/Информация : UTF-8 Plain Text
Заголовок : русские
Язык : Russian
Default : Нет
Forced : Нет





   Похожие торренты   Торрент   Размер 
В этой теме нет новых непрочитанных сообщений. Акулы: Властелины подводного мира / Sharks: Kings of the Ocean ( 2013) BDRip-AVC

1 | 2

763.82 МБ

В этой теме нет новых непрочитанных сообщений. Акулы: Властелины подводного мира / Sharks: Kings of the Ocean (2013) BDRip AVC

150 | 23

1.33 ГБ

В этой теме нет новых непрочитанных сообщений. Акулы: Властелины подводного мира / Sharks: Kings of the Ocean (2013) BDRip 720p

163 | 33

2.06 ГБ

В этой теме нет новых непрочитанных сообщений. Тайны планеты Земля. Акулы : Властелины подводного мира / Sharks : Kings of the Ocean (2013) WEB-DLRip-AVC от -=HD-NET=-

38 | 4

756.83 МБ

В этой теме нет новых непрочитанных сообщений. Акулы 3D: Властители океана / Sharks 3D: Kings of the Ocean (2013) WEB-DLRip

68 | 11

714.14 МБ

В этой теме нет новых непрочитанных сообщений. Горные акулы / Avalanche Sharks (2013) BDRip 720p | L1

442 | 98

3.39 ГБ

В этой теме нет новых непрочитанных сообщений. Тайны подводного мира 3D / Deep Sea 3D (2006) BDRip 1080p | 3D-Video

149 | 8

3.83 ГБ




Вы не можете начинать темы
Вы не можете отвечать на сообщения
Вы не можете редактировать свои сообщения
Вы не можете удалять свои сообщения
Вы не можете добавлять вложения

Перейти:  
Для Мосгорсуда, Роскомнадзора и рекламодателей: mosgorsud-torrent[собачка]yandex.ru
 Вход
ppkBB3cker v.2 © 2008-2014 @ PPK
[ Time : 0.051s | 14 Queries | GZIP : Off ]

Торрент трекер RUTOR.IN, Не можете зайти на rutor.org? Какой новый адрес рутор? Какое зеркало рутор? Не работает rutor.org и зеркала? Тогда наш торрент специально для вас. Rutor.in неофициальное зеркало rutor. В случае если у Вас заблокирован rutor или вдруг Вы не можете на него зайти, то Вы без труда сможете скачать бесплатно и без рекламы последние новинки кино, игр, сериалов и прочего у нас, на Rutor.in. Не нужно использовать прокси, чтобы зайти на рутор, достаточно воспользоваться нашим ресурсом. Все новые фильмы, игры, сериалы, книги и музыка за 2013 и 2014 годы через торрент бесплатно. Скачивайте фильмы в хорошем качестве, игры для пк, xbox, playstation без регистрации. У нас вы найдете новые Зарубежные сериалы и Русские сериалы 2013, 2014, 2015 годов. Оставайтесь с нами, качайте любимые фильмы, игры, сериалы, книги и музыку.