img image001 image001 image001 image001 image001 image001 image001 image001 image001 image001 image001 image001 image001 image001 image001

Planets Sun Sun Sun
Статистика раздачи
Автор: Nickolas3434 | Размер: 1.6 ГБ | Добавлен: 02 июн 2015
Раздают: 22    Качают: 4
Скачать торрент
Скачать торрент
Описание торрента

СообщениеДобавлено: 02 июн 2015 


Название: Эверглейдс: Ламантины Кристальной реки
Оригинальное название: Adventure Everglades: The Manatees of Crystal River
Год выпуска: 2012
Страна: Германия
Жанр: документальный
Продолжительность: 00:54:00
Перевод: профессиональный одноголосый
Режиссёр: Юрген Климмек
Описание: Национальный парк Эверглейдс расположился в США в южной части штата Флориды. Его уникальные ландшафты, покрытые изумрудным ковром субтропические леса, пресноводные водоёмы с множеством разнообразных обитателей формируют уникальную экосистему, где находится крупнейшее в мире пресноводное болото. В зеркальных водах Эверглейдса встречается более 150 видов рыбы. На мелководье обитает Флоридский ламантин, которого ещё называют морской коровой. Эти симпатичные, удивительно миролюбивые и неторопливые животные, которые занесены в Красную книгу, ежегодно привлекают сотни тысяч туристов со всех частей света...
Качество: BDRip AVC Сравнение с исходником
Формат: MKV
Видео: MPEG-4 AVC, 3253 Кбит/с, 1024x576, 23,976 кадра/с
Аудио 1: русский, AC3, 448 kbps, 6 ch, 48 kHz [профессиональный одноголосый]
Аудио 2: английский, AC3, 448 kbps, 6 ch, 48 kHz [оригинал]
Субтитры: русские
Общее
Уникальный идентификатор : 181880242237286836324168740851116285211 (0x88D4DC4887ABFB61B6132C70FCF21D1B)
Полное имя : D:VideoЭверглейдс.2012.BDRip.AVC.mkv
Формат : Matroska
Версия формата : Version 4 / Version 2
Размер файла : 1,60 Гбайт
Продолжительность : 54 м.
Общий поток : 4233 Кбит/сек
Название фильма : BDRip -- STarankov
Дата кодирования : UTC 2015-05-30 02:23:07
Программа кодирования : mkvmerge v7.9.0 ('Birds') 64bit
Библиотека кодирования : libebml v1.3.1 + libmatroska v1.4.2
_STATISTICS_WRITING_APP : mkvmerge v7.9.0 ('Birds') 64bit
_STATISTICS_WRITING_DATE_UTC : 2015-05-30 02:23:07
_STATISTICS_TAGS : BPS DURATION NUMBER_OF_FRAMES NUMBER_OF_BYTES
DURATION : 00:53:18.820000000
NUMBER_OF_FRAMES : 531
NUMBER_OF_BYTES : 45012
Видео
Идентификатор : 1
Формат : AVC
Формат/Информация : Advanced Video Codec
Профиль формата : High@L4.1
Параметр CABAC формата : Да
Параметр ReFrames формата : 9 кадров
Идентификатор кодека : V_MPEG4/ISO/AVC
Продолжительность : 54 м.
Битрейт : 3253 Кбит/сек
Ширина : 1024 пикселя
Высота : 576 пикселей
Соотношение сторон : 16:9
Режим частоты кадров : Постоянный
Частота кадров : 23,976 кадра/сек
Цветовое пространство : YUV
Субдискретизация насыщенности : 4:2:0
Битовая глубина : 8 бит
Тип развёртки : Прогрессивная
Бит/(Пиксели*Кадры) : 0.230
Размер потока : 1,23 Гбайт (77%)
Библиотека кодирования : x264 core 146 r2538 121396c
Настройки программы : cabac=1 / ref=9 / deblock=1:-1:-1 / analyse=0x3:0x113 / me=umh / subme=10 / psy=1 / psy_rd=1.00:0.15 / mixed_ref=1 / me_range=32 / chroma_me=1 / trellis=2 / 8x8dct=1 / cqm=0 / deadzone=21,11 / fast_pskip=1 / chroma_qp_offset=-3 / threads=6 / lookahead_threads=1 / sliced_threads=0 / nr=0 / decimate=1 / interlaced=0 / bluray_compat=0 / constrained_intra=0 / bframes=8 / b_pyramid=2 / b_adapt=2 / b_bias=0 / direct=1 / weightb=1 / open_gop=0 / weightp=2 / keyint=230 / keyint_min=23 / scenecut=40 / intra_refresh=0 / rc_lookahead=40 / rc=crf / mbtree=0 / crf=20.0 / qcomp=0.60 / qpmin=0 / qpmax=69 / qpstep=4 / vbv_maxrate=40000 / vbv_bufsize=50000 / crf_max=0.0 / nal_hrd=none / filler=0 / ip_ratio=1.40 / pb_ratio=1.30 / aq=1:1.00
Язык : English
Default : Да
Forced : Нет
DURATION : 00:54:00.070000000
NUMBER_OF_FRAMES : 77684
NUMBER_OF_BYTES : 1350691916
_STATISTICS_WRITING_APP : mkvmerge v7.9.0 ('Birds') 64bit
_STATISTICS_WRITING_DATE_UTC : 2015-05-30 02:23:07
_STATISTICS_TAGS : BPS DURATION NUMBER_OF_FRAMES NUMBER_OF_BYTES
Аудио #1
Идентификатор : 2
Формат : AC-3
Формат/Информация : Audio Coding 3
Расширение режима : CM (complete main)
Параметр Endianness формата : Big
Идентификатор кодека : A_AC3
Продолжительность : 54 м.
Вид битрейта : Постоянный
Битрейт : 448 Кбит/сек
Каналы : 6 каналов
Расположение каналов : Front: L C R, Side: L R, LFE
Частота : 48,0 КГц
Битовая глубина : 16 бит
Метод сжатия : С потерями
Размер потока : 173 Мбайт (11%)
Заголовок : профессиональный одноголосый
Язык : Russian
Default : Да
Forced : Нет
Аудио #2
Идентификатор : 3
Формат : AC-3
Формат/Информация : Audio Coding 3
Расширение режима : CM (complete main)
Параметр Endianness формата : Big
Идентификатор кодека : A_AC3
Продолжительность : 54 м.
Вид битрейта : Постоянный
Битрейт : 448 Кбит/сек
Каналы : 6 каналов
Расположение каналов : Front: L C R, Side: L R, LFE
Частота : 48,0 КГц
Битовая глубина : 16 бит
Метод сжатия : С потерями
Размер потока : 173 Мбайт (11%)
Заголовок : Original
Язык : English
Default : Нет
Forced : Нет
Текст
Идентификатор : 4
Формат : UTF-8
Идентификатор кодека : S_TEXT/UTF8
Идентификатор кодека/Информация : UTF-8 Plain Text
Заголовок : русские
Язык : Russian
Default : Нет
Forced : Нет





   Похожие торренты   Торрент   Размер 
В этой теме нет новых непрочитанных сообщений. Эверглейдс: Ламантины Кристальной реки / Adventure Everglades: The Manatees of Crystal River (2012) BDRip 720p

17 | 1

2.25 ГБ

В этой теме нет новых непрочитанных сообщений. Эверглейдс: Ламантины Кристальной реки / Adventure Everglades: The Manatees of Crystal River (2012) BDRip 1080p

18 | 1

4.82 ГБ

В этой теме нет новых непрочитанных сообщений. Эверглейдс: Ламантины Кристальной реки / Adventure Everglades: The Manatees of Crystal River (2012) BDRip 1080p | 3D-Video | halfOU

14 | 5

6.91 ГБ

В этой теме нет новых непрочитанных сообщений. Эверглейдс: Ламантины Кристальной реки / Abenteuer Everglades: Die Manatis des Crystal River (2012) BDRip-AVC от -=HD-NET=-

0 | 1

801.58 МБ

В этой теме нет новых непрочитанных сообщений. NG: Национальные парки Америки. Эверглейдс / America's National Parks. Everglades (2015) HDTVRip 720p | D

29 | 0

1.52 ГБ

В этой теме нет новых непрочитанных сообщений. NG: Национальные парки Америки. Эверглейдс / America's National Parks. Everglades (2015) HDTVRip от Kaztorrents | D

4 | 0

628.18 МБ

В этой теме нет новых непрочитанных сообщений. На берегу реки / River's Edge (1986) BDRip | P

29 | 13

1.6 ГБ




Вы не можете начинать темы
Вы не можете отвечать на сообщения
Вы не можете редактировать свои сообщения
Вы не можете удалять свои сообщения
Вы не можете добавлять вложения

Перейти:  
Для Мосгорсуда, Роскомнадзора и рекламодателей: mosgorsud-torrent[собачка]yandex.ru
 Вход
ppkBB3cker v.2 © 2008-2014 @ PPK
[ Time : 0.041s | 15 Queries | GZIP : Off ]

cron