img image001 image001 image001 image001 image001 image001 image001 image001 image001 image001 image001 image001 image001 image001 image001

Planets Sun Sun Sun
Статистика раздачи
Автор: Nickolas3434 | Размер: 4.95 ГБ | Добавлен: 03 июн 2015
Раздают: 85    Качают: 14
Скачать торрент
Скачать торрент
Описание торрента

СообщениеДобавлено: 03 июн 2015 


Название: Битва за космос
Оригинальное название: Space Race
Год выхода: 2005
Жанр: Художественно-документальный, драма
Режиссер: Кристофер Спенсер, Марк Эверест
В ролях: Мария Миронова, Михаил Горевой, Анна Бэркэн, Макс Боллинджер, Оливер Де Ла Фоссе, Ричард Диллэйн, Стив Николсон, Стюарт Банс, Джон Уэрнэби, Саймон Дэй, Равиль Исянов, Эрик Лорен
О фильме:
Это подлинная история одного из самых захватывающих и волнующих эпизодов в истории человечества. Четырехсерийный фильм рассказывает о сражении блестящих научных умов в космической гонке двух супердержав - СССР и США. В центре противостояния двух систем, поглощавшего огромные ресурсы, и уносившего немало жизней, двое ученых: работающий на американцев бывший нацист Вернер фон Браун, и Сергей Королев - главный конструктор, руководитель советской группы разработчиков космической программы. Этот крупнобюджетный документальный проект объединил-усилия таких ведущих телевизионных компаний, как "Первый канал" (Россия), BBC (Великобритания), National Geographic (США) и NDR (Германия). Создатели сериала используют уникальные компьютерные технологии, которые буквально "оживляют" прошлое, чтобы с максимальной достоверностью представить зрителям драматические подробности этой "битвы за космос". В основу сценария легли воспоминания очевидцев и дневниковые записи участников событий, а также архивные документы и видеоматериалы.
Страна: Великобритания, Россия, США, Германия
Студия: BBC, Первый канал, National Geographic Channel, NDR
Продолжительность: 4 х ~ 00:52:00
Перевод: Дублированный
Кодек: MPEG-4 AVC
Качество: DVDRip-AVC
Видео: 720x572@1024x572, ~ 2900 Кбит/с, 25,000 fps
Звук: AC3, 6 ch, 448 Кбит/с
Субтитры: Русские
Семпл
Фильм 1: Ракетная гонка. 1944 год. Советская и американская разведки соперничают в охоте за технологическими секретами третьего Рейха. Вернер фон Браун - гениальный ученый, член нацистской партии, создатель ракет ФАУ-1 и ФАУ-2 бежит к американцам. Его ближайший помощник - Гельмут Греттруп - сдается русским. В это же время в Германии находится Сергей Королев. Через три года под его руководством в СССР осуществляют успешный запуск собственной, гораздо более совершенной, чем ФАУ-2, ракеты Р-2.
Фильм 2: Первый спутник. Руководители советской и американской космических программ - Вернер фон Браун и Сергей Королев - мечтают о полетах за пределы Земли. Но правительства супердержав согласны финансировать исключительно военные программы, и Королеву и фон Брауну приходится прикладывать немало сил, прибегая иногда к откровенным уловкам, чтобы добиться разрешения готовить к запуску первый спутник. 4 октября 1957 года сообщение о советском "искусственном спутнике земли" было на первых полосах газет всего мира. Спутник Вернера фон Брауна запустили только через 4 месяца. Американцы сравняли счет.
Фильм 3: Гонка на выживание. "Звездный отряд" в Советском Союзе против "семи первопроходцев" в Америке. Никто нe знал точно, сможет ли человек выдержать экстремальные условия путешествия в космос. Вернер фон Браун и Сергей Королев проводят одно испытание за другим. Катастрофа с ракетой Р-16 наносит серьезный удар советской космической программе. Старт первого американского космонавта - Алана Шепарда - из-за технических проблем переносится дважды. И опять Советский Союз победил. Сегодня имя первого космонавта земли - Юрия Гагарина - знает весь мир.
Фильм 4: Лунная гонка. Триумфальный полет Гагарина в Америке восприняли как национальное унижение. Президент Кеннеди пообещал, что именно Америка отправит человека на Луну. Смерть Сергея Королева коренным образом изменила ход космической гонки. 20 июля 1969 года, спустя 25 лет с тех пор, как Вернер фон Браун прибыл в Америку, его ракета доставила на поверхность Луны Нила Армстронга и Эдвина Олдрина.
General
Unique ID : 171574730072543045668607114510652585392 (0x8114174E0C9A88F29001BB3F737EB5B0)
Complete name : J:Space.Race.2005.x264.DVDRip.(AVC)\03.Гонка на выживание.mkv
Format : Matroska
Format version : Version 2
File size : 1.24 GiB
Duration : 51mn 49s
Overall bit rate : 3 437 Kbps
Movie name : Space race / Гонка на выживание / 2005 / Rip by PowerRock / ExKinoRay
Encoded date : UTC 2015-05-29 08:55:36
Writing application : mkvmerge v7.8.0 ('River Man') 32bit built on Apr 3 2015 12:11:22
Writing library : libebml v1.3.1 + libmatroska v1.4.2
Attachements : cover.jpg
Video
ID : 1
Format : AVC
Format/Info : Advanced Video Codec
Format profile : High@L4.1
Format settings, CABAC : Yes
Format settings, ReFrames : 8 frames
Codec ID : V_MPEG4/ISO/AVC
Duration : 51mn 49s
Bit rate : 2 987 Kbps
Width : 720 pixels
Height : 572 pixels
Display aspect ratio : 16:9
Frame rate mode : Constant
Frame rate : 25.000 fps
Color space : YUV
Chroma subsampling : 4:2:0
Bit depth : 8 bits
Scan type : Progressive
Bits/(Pixel*Frame) : 0.290
Stream size : 1.06 GiB (85%)
Title : Space race / Гонка на выживание / 2005
Writing library : x264 core 146 r2538 121396c
Encoding settings : cabac=1 / ref=8 / deblock=1:-2:-1 / analyse=0x3:0x113 / me=umh / subme=10 / psy=1 / psy_rd=1.00:0.00 / mixed_ref=1 / me_range=24 / chroma_me=1 / trellis=2 / 8x8dct=1 / cqm=0 / deadzone=21,11 / fast_pskip=0 / chroma_qp_offset=-2 / threads=6 / lookahead_threads=1 / sliced_threads=0 / nr=0 / decimate=1 / interlaced=0 / bluray_compat=0 / constrained_intra=0 / bframes=7 / b_pyramid=2 / b_adapt=2 / b_bias=0 / direct=3 / weightb=1 / open_gop=0 / weightp=2 / keyint=250 / keyint_min=23 / scenecut=40 / intra_refresh=0 / rc_lookahead=50 / rc=2pass / mbtree=1 / bitrate=2987 / ratetol=1.0 / qcomp=0.60 / qpmin=10 / qpmax=51 / qpstep=4 / cplxblur=20.0 / qblur=0.5 / vbv_maxrate=14000 / vbv_bufsize=14000 / nal_hrd=none / filler=0 / ip_ratio=1.40 / aq=1:1.00
Default : Yes
Forced : No
Audio
ID : 2
Format : AC-3
Format/Info : Audio Coding 3
Mode extension : CM (complete main)
Format settings, Endianness : Big
Codec ID : A_AC3
Duration : 51mn 49s
Bit rate mode : Constant
Bit rate : 448 Kbps
Channel(s) : 6 channels
Channel positions : Front: L C R, Side: L R, LFE
Sampling rate : 48.0 KHz
Compression mode : Lossy
Delay relative to video : 520ms
Stream size : 166 MiB (13%)
Language : Russian
Default : Yes
Forced : No
Text
ID : 3
Format : UTF-8
Codec ID : S_TEXT/UTF8
Codec ID/Info : UTF-8 Plain Text
Language : Russian
Default : Yes
Forced : No




Релиз от:



   Похожие торренты   Торрент   Размер 
В этой теме нет новых непрочитанных сообщений. Битва за космос / Space Race [S01] (2005) DVDRip | D

2 | 2

3.91 ГБ

В этой теме нет новых непрочитанных сообщений. Битва за космос / Space Race [S01] (2005) DVDRip-AVC | D

107 | 11

3.69 ГБ

В этой теме нет новых непрочитанных сообщений. Битва за космос / Space Race (2005) DVDRip-AVC от Тorrent-Хzona

4 | 7

3.08 ГБ

В этой теме нет новых непрочитанных сообщений. Секретный космос - Иллюминаты Захватывают Космос / Secret Space - Illuminati`s Conquest of Space (2007) DVDRip

40 | 17

917.65 МБ

В этой теме нет новых непрочитанных сообщений. Красный космос. Секретные космические программы русских / Red Space: The Secret Russian Space Program (1999) SATRip

43 | 8

2.44 ГБ

В этой теме нет новых непрочитанных сообщений. Мертвый космос / Dead Space (1991) DVDRip

14 | 7

743.88 МБ

В этой теме нет новых непрочитанных сообщений. BBC: Космос. Жизнь / BBC: Space. Life (2001) DVDRip

7 | 4

700.84 МБ




Вы не можете начинать темы
Вы не можете отвечать на сообщения
Вы не можете редактировать свои сообщения
Вы не можете удалять свои сообщения
Вы не можете добавлять вложения

Перейти:  
Для Мосгорсуда, Роскомнадзора и рекламодателей: mosgorsud-torrent[собачка]yandex.ru
 Вход
ppkBB3cker v.2 © 2008-2014 @ PPK
[ Time : 0.027s | 14 Queries | GZIP : Off ]

Торрент трекер RUTOR.IN, Не можете зайти на rutor.org? Какой новый адрес рутор? Какое зеркало рутор? Не работает rutor.org и зеркала? Тогда наш торрент специально для вас. Rutor.in неофициальное зеркало rutor. В случае если у Вас заблокирован rutor или вдруг Вы не можете на него зайти, то Вы без труда сможете скачать бесплатно и без рекламы последние новинки кино, игр, сериалов и прочего у нас, на Rutor.in. Не нужно использовать прокси, чтобы зайти на рутор, достаточно воспользоваться нашим ресурсом. Все новые фильмы, игры, сериалы, книги и музыка за 2013 и 2014 годы через торрент бесплатно. Скачивайте фильмы в хорошем качестве, игры для пк, xbox, playstation без регистрации. У нас вы найдете новые Зарубежные сериалы и Русские сериалы 2013, 2014, 2015 годов. Оставайтесь с нами, качайте любимые фильмы, игры, сериалы, книги и музыку.