img image001 image001 image001 image001 image001 image001 image001 image001 image001 image001 image001 image001 image001 image001 image001

Planets Sun Sun Sun
Статистика раздачи
Автор: Nickolas3434 | Размер: 8.28 ГБ | Добавлен: 08 июн 2015
Раздают: 80    Качают: 3
Скачать торрент
Скачать торрент
Описание торрента

СообщениеДобавлено: 08 июн 2015 


Название: Мечты Дзиро о суши
Оригинальное название: Jiro Dreams of Sushi
Год выпуска: 2011
Страна: США
Жанр: документальный
Продолжительность: 01:22:27
Перевод: одноголосый закадровый
Режиссёр: Дэвид Гелб
В ролях: Масухиро Ямамото, Дайсуке Наказама, Хироки Фудзита, Цуненори Ида, Акихиро Ояма, Сидзуо Ояма
Описание: Фильм о владельце ресторанчика в Токио, всю свою жизнь посвятившем приготовлению суши. Дзиро Оно 85 лет. Его заведение даже трудно назвать рестораном, это крохотная щель в подземном переходе где-то в Гинзе. Всего десять посадочных мест, просто ряд высоких стульев вдоль стойки. Туалет снаружи. В меню только суши и ничего больше. И три звезды Мишлен. И бронировать стул надо за месяц...

Качество: BDRip 1080p Сравнение с исходником
Формат: MKV
Видео: MPEG-4 AVC, 13.6 Mбит/с, 1920x1080, 23,976 кадра/с
Аудио: русский, AC3, 448 kbps, 6 ch, 48 kHz [одноголосый закадровый]
Общее
Уникальный идентификатор : 183298038513677927614279282890421035974 (0x89E5EB0964E8910B8E559204EF9BE3C6)
Полное имя : D:VideoМечты Дзиро о суши.2011.BDRip.1080p.mkv
Формат : Matroska
Версия формата : Version 4 / Version 2
Размер файла : 8,28 Гбайт
Продолжительность : 1 ч. 22 м.
Общий поток : 14,4 Мбит/сек
Название фильма : BDRip -- STarankov
Дата кодирования : UTC 2015-06-04 10:20:45
Программа кодирования : mkvmerge v7.9.0 ('Birds') 64bit
Библиотека кодирования : libebml v1.3.1 + libmatroska v1.4.2
DURATION : 01:22:27.968000000
NUMBER_OF_FRAMES : 154624
NUMBER_OF_BYTES : 277086208
_STATISTICS_WRITING_APP : mkvmerge v7.9.0 ('Birds') 64bit
_STATISTICS_WRITING_DATE_UTC : 2015-06-04 10:20:45
_STATISTICS_TAGS : BPS DURATION NUMBER_OF_FRAMES NUMBER_OF_BYTES
Видео
Идентификатор : 1
Формат : AVC
Формат/Информация : Advanced Video Codec
Профиль формата : High@L4.1
Параметр CABAC формата : Да
Параметр ReFrames формата : 4 кадра
Идентификатор кодека : V_MPEG4/ISO/AVC
Продолжительность : 1 ч. 22 м.
Битрейт : 13,6 Мбит/сек
Ширина : 1920 пикселей
Высота : 1080 пикселей
Соотношение сторон : 16:9
Режим частоты кадров : Постоянный
Частота кадров : 23,976 кадра/сек
Цветовое пространство : YUV
Субдискретизация насыщенности : 4:2:0
Битовая глубина : 8 бит
Тип развёртки : Прогрессивная
Бит/(Пиксели*Кадры) : 0.275
Размер потока : 7,86 Гбайт (95%)
Библиотека кодирования : x264 core 146 r2538 121396c
Настройки программы : cabac=1 / ref=4 / deblock=1:-1:-1 / analyse=0x3:0x113 / me=umh / subme=10 / psy=1 / psy_rd=1.00:0.15 / mixed_ref=1 / me_range=32 / chroma_me=1 / trellis=2 / 8x8dct=1 / cqm=0 / deadzone=21,11 / fast_pskip=1 / chroma_qp_offset=-3 / threads=6 / lookahead_threads=1 / sliced_threads=0 / nr=0 / decimate=1 / interlaced=0 / bluray_compat=0 / constrained_intra=0 / bframes=8 / b_pyramid=2 / b_adapt=2 / b_bias=0 / direct=1 / weightb=1 / open_gop=0 / weightp=2 / keyint=230 / keyint_min=23 / scenecut=40 / intra_refresh=0 / rc_lookahead=40 / rc=crf / mbtree=0 / crf=17.0 / qcomp=0.60 / qpmin=0 / qpmax=69 / qpstep=4 / vbv_maxrate=40000 / vbv_bufsize=50000 / crf_max=0.0 / nal_hrd=none / filler=0 / ip_ratio=1.40 / pb_ratio=1.30 / aq=1:1.00
Язык : English
Default : Да
Forced : Нет
DURATION : 01:22:27.943000000
NUMBER_OF_FRAMES : 118632
NUMBER_OF_BYTES : 8616624591
_STATISTICS_WRITING_APP : mkvmerge v7.9.0 ('Birds') 64bit
_STATISTICS_WRITING_DATE_UTC : 2015-06-04 10:20:45
_STATISTICS_TAGS : BPS DURATION NUMBER_OF_FRAMES NUMBER_OF_BYTES
Аудио
Идентификатор : 2
Формат : AC-3
Формат/Информация : Audio Coding 3
Расширение режима : CM (complete main)
Параметр Endianness формата : Big
Идентификатор кодека : A_AC3
Продолжительность : 1 ч. 22 м.
Вид битрейта : Постоянный
Битрейт : 448 Кбит/сек
Каналы : 6 каналов
Расположение каналов : Front: L C R, Side: L R, LFE
Частота : 48,0 КГц
Битовая глубина : 16 бит
Метод сжатия : С потерями
Размер потока : 264 Мбайт (3%)
Заголовок : любительский одноголосый
Язык : Russian
Default : Да
Forced : Нет





   Похожие торренты   Торрент   Размер 
В этой теме нет новых непрочитанных сообщений. Мечты Дзиро о суши / Дзиро снятся суши / Jiro dreams of sushi (2011) HDRip от BTT-TEAM

42 | 3

1.47 ГБ

В этой теме нет новых непрочитанных сообщений. Мечты Дзиро о суши / Jiro Dreams of Sushi (2011) BDRemux 1080p | L1

69 | 39

11.16 ГБ

В этой теме нет новых непрочитанных сообщений. Мечты Дзиро о суши / Jiro Dreams of Sushi (2011) BDRip AVC

161 | 21

1.98 ГБ

В этой теме нет новых непрочитанных сообщений. Мечты Дзиро о суши / Jiro Dreams of Sushi (2011) BDRip 720p

167 | 4

3.17 ГБ

В этой теме нет новых непрочитанных сообщений. Суши гёл / Sushi Girl (2012) BDRemux 1080p от ExKinoRay | Лицензия, A

4 | 7

20.21 ГБ

В этой теме нет новых непрочитанных сообщений. Суши гёл / Sushi Girl (2012) BDRip 720p | D, A

11 | 7

4.36 ГБ

В этой теме нет новых непрочитанных сообщений. Суши гёл / Sushi Girl (2012) BDRip-AVC от HELLYWOOD | D

0 | 3

1.45 ГБ




Вы не можете начинать темы
Вы не можете отвечать на сообщения
Вы не можете редактировать свои сообщения
Вы не можете удалять свои сообщения
Вы не можете добавлять вложения

Перейти:  
Для Мосгорсуда, Роскомнадзора и рекламодателей: mosgorsud-torrent[собачка]yandex.ru
 Вход
ppkBB3cker v.2 © 2008-2014 @ PPK
[ Time : 0.046s | 14 Queries | GZIP : Off ]

Торрент трекер RUTOR.IN, Не можете зайти на rutor.org? Какой новый адрес рутор? Какое зеркало рутор? Не работает rutor.org и зеркала? Тогда наш торрент специально для вас. Rutor.in неофициальное зеркало rutor. В случае если у Вас заблокирован rutor или вдруг Вы не можете на него зайти, то Вы без труда сможете скачать бесплатно и без рекламы последние новинки кино, игр, сериалов и прочего у нас, на Rutor.in. Не нужно использовать прокси, чтобы зайти на рутор, достаточно воспользоваться нашим ресурсом. Все новые фильмы, игры, сериалы, книги и музыка за 2013 и 2014 годы через торрент бесплатно. Скачивайте фильмы в хорошем качестве, игры для пк, xbox, playstation без регистрации. У нас вы найдете новые Зарубежные сериалы и Русские сериалы 2013, 2014, 2015 годов. Оставайтесь с нами, качайте любимые фильмы, игры, сериалы, книги и музыку.