img image001 image001 image001 image001 image001 image001 image001 image001 image001 image001 image001 image001 image001 image001 image001

Planets Sun Sun Sun
Статистика раздачи
Автор: Nickolas3434 | Размер: 5.19 ГБ | Добавлен: 08 июн 2015
Раздают: 80    Качают: 17
Скачать торрент
Скачать торрент
Описание торрента

СообщениеДобавлено: 08 июн 2015 

Амазония: Инструкция по выживанию / Amazonia

«Джунгли зовут»

Русское название: Амазония: Инструкция по выживанию
Оригинальное название: Amazonia
Год выпуска: 2013
Жанр: документальный, приключения, семейный
Выпущено: Франция, Бразилия
Режиссер: Тьерри Рагоберт
Перевод: Дублированный - [iTunes]

Сюжет фильма:
Картина про домашнего капуцина, который после авиакатастрофы попадает в свои естественные, природные, но чуждые ему условия.

Качество: BDRip 720p
Формат: AVC (библиотека кодирования x.264)
Контейнер (Расширение): MKV
Видео: 1280x690, 7739 Кбит/сек, 23,976 кадр/сек, 0,365 Бит/[Пиксели*Кадры]
Аудио №1: русский / AC3 / 5.1 / 48 kHz / 384 kbps / 16 bit |Дублированный - iTunes|
Аудио №2: английский / AC3 / 5.1 / 48 kHz / 640 kbps / 16 bit |Музыка,Звуки природы|
Субтитры: русские (Russian)
Навигация по главам(Чаптеры): есть
Продолжительность: 01:23:05
Автор рипа: Сообщество:

Format : Matroska
Format version : Version 2
File size : 5.19 GiB
Duration : 1h 23mn
Overall bit rate : 8 942 Kbps
Movie name : Amazonia.(2013).BDRip.720p.[denis100]
Encoded date : UTC 2015-06-07 14:55:21
Writing application : mkvmerge v5.8.0 ('No Sleep / Pillow') built on Sep 2 2012 15:37:04
Writing library : libebml v1.2.3 + libmatroska v1.3.0
Video
ID : 1
Format : AVC
Format/Info : Advanced Video Codec
Format profile : High@L4.1
Format settings, CABAC : Yes
Format settings, ReFrames : 9 frames
Codec ID : V_MPEG4/ISO/AVC
Duration : 1h 23mn
Bit rate : 7 740 Kbps
Width : 1 280 pixels
Height : 690 pixels
Display aspect ratio : 1.855
Frame rate : 23.976 fps
Color space : YUV
Chroma subsampling : 4:2:0
Bit depth : 8 bits
Scan type : Progressive
Bits/(Pixel*Frame) : 0.365
Stream size : 4.49 GiB (87%)
Title : Amazonia.(2013).BDRip.720p.[denis100]
Writing library : x264 core 142 r2491 24e4fed
Encoding settings : cabac=1 / ref=9 / deblock=1:-3:-3 / analyse=0x3:0x133 / me=umh / subme=11 / psy=1 / psy_rd=1.00:0.10 / mixed_ref=1 / me_range=32 / chroma_me=1 / trellis=2 / 8x8dct=1 / cqm=0 / deadzone=21,11 / fast_pskip=0 / chroma_qp_offset=-3 / threads=6 / lookahead_threads=1 / sliced_threads=0 / nr=0 / decimate=1 / interlaced=0 / bluray_compat=0 / constrained_intra=0 / bframes=11 / b_pyramid=2 / b_adapt=2 / b_bias=0 / direct=3 / weightb=1 / open_gop=0 / weightp=2 / keyint=240 / keyint_min=23 / scenecut=40 / intra_refresh=0 / rc=crf / mbtree=0 / crf=18.0 / qcomp=0.60 / qpmin=0 / qpmax=69 / qpstep=4 / ip_ratio=1.40 / pb_ratio=1.30 / aq=2:0.90
Language : English
Default : Yes
Forced : No
Audio #1
ID : 2
Format : AC-3
Format/Info : Audio Coding 3
Mode extension : CM (complete main)
Codec ID : A_AC3
Duration : 1h 23mn
Bit rate mode : Constant
Bit rate : 384 Kbps
Channel(s) : 6 channels
Channel positions : Front: L C R, Side: L R, LFE
Sampling rate : 48.0 KHz
Bit depth : 16 bits
Compression mode : Lossy
Stream size : 228 MiB (4%)
Title : Дубляж, iTunes
Language : Russian
Default : No
Forced : No
Audio #2
ID : 3
Format : AC-3
Format/Info : Audio Coding 3
Mode extension : CM (complete main)
Codec ID : A_AC3
Duration : 1h 23mn
Bit rate mode : Constant
Bit rate : 640 Kbps
Channel(s) : 6 channels
Channel positions : Front: L C R, Side: L R, LFE
Sampling rate : 48.0 KHz
Bit depth : 16 bits
Compression mode : Lossy
Stream size : 380 MiB (7%)
Title : English
Language : English
Default : Yes
Forced : No
Text
ID : 4
Format : UTF-8
Codec ID : S_TEXT/UTF8
Codec ID/Info : UTF-8 Plain Text
Title : Russian
Language : Russian
Default : No
Forced : No
Menu
00:00:00.000 : en:
00:05:23.489 : en:
00:09:52.967 : en:
00:15:39.480 : en:
00:20:38.278 : en:
00:26:19.160 : en:
00:31:19.085 : en:
00:36:45.494 : en:
00:41:14.930 : en:
00:46:26.533 : en:
00:50:15.220 : en:
00:54:13.541 : en:
01:00:09.355 : en:
01:04:35.872 : en:
01:12:46.904 : en:
01:18:21.029 : en:
01:23:05.689 : en:



   Похожие торренты   Торрент   Размер 
В этой теме нет новых непрочитанных сообщений. Амазония: Инструкция по выживанию / Amazonia (2013) BDRip 1080p от NNNB

111 | 17

4.97 ГБ

В этой теме нет новых непрочитанных сообщений. Амазония: Инструкция по выживанию / Amazonia (2013) BDRip-AVC | D

44 | 11

1.67 ГБ

В этой теме нет новых непрочитанных сообщений. Амазония: Инструкция по выживанию / Amazonia (2013) BDRemux 2D/3D 1080p от Ash61 | 3D-Video | L1

11 | 6

30.21 ГБ

В этой теме нет новых непрочитанных сообщений. Амазония / Amazonia (2013) BDRip 720p

288 | 22

2.74 ГБ

В этой теме нет новых непрочитанных сообщений. Амазония / Amazonia (2013) WEB-DL 720p от HDClub | D

259 | 12

2.53 ГБ

В этой теме нет новых непрочитанных сообщений. Амазония / Amazonia (2013) BDRip-AVC

260 | 12

1.45 ГБ

В этой теме нет новых непрочитанных сообщений. Амазония / Amazonia (2013) BDRip от Rulya74

68 | 8

1.36 ГБ




Вы не можете начинать темы
Вы не можете отвечать на сообщения
Вы не можете редактировать свои сообщения
Вы не можете удалять свои сообщения
Вы не можете добавлять вложения

Перейти:  
Для Мосгорсуда, Роскомнадзора и рекламодателей: mosgorsud-torrent[собачка]yandex.ru
 Вход
ppkBB3cker v.2 © 2008-2014 @ PPK
[ Time : 2.722s | 15 Queries | GZIP : Off ]

Торрент трекер RUTOR.IN, Не можете зайти на rutor.org? Какой новый адрес рутор? Какое зеркало рутор? Не работает rutor.org и зеркала? Тогда наш торрент специально для вас. Rutor.in неофициальное зеркало rutor. В случае если у Вас заблокирован rutor или вдруг Вы не можете на него зайти, то Вы без труда сможете скачать бесплатно и без рекламы последние новинки кино, игр, сериалов и прочего у нас, на Rutor.in. Не нужно использовать прокси, чтобы зайти на рутор, достаточно воспользоваться нашим ресурсом. Все новые фильмы, игры, сериалы, книги и музыка за 2013 и 2014 годы через торрент бесплатно. Скачивайте фильмы в хорошем качестве, игры для пк, xbox, playstation без регистрации. У нас вы найдете новые Зарубежные сериалы и Русские сериалы 2013, 2014, 2015 годов. Оставайтесь с нами, качайте любимые фильмы, игры, сериалы, книги и музыку.