img image001 image001 image001 image001 image001 image001 image001 image001 image001 image001 image001 image001 image001 image001 image001

Planets Sun Sun Sun
Статистика раздачи
Автор: Nickolas3434 | Размер: 4.98 ГБ | Добавлен: 10 июн 2015
Раздают: 114    Качают: 17
Скачать торрент
Скачать торрент
Описание торрента

СообщениеДобавлено: 10 июн 2015 


Название: Европа. История континента
Оригинальное название: BBC. Wild Europe
Год выхода: 2005
Жанр: Документальный, научно-познавательный, геология, история, природа, география
Режиссер: Иан Грэй
О фильме: Этот фильм - грандиозное путешествие на три миллиарда лет назад, во времена Ледникового Периода и задолго до появления первого большого города. Вы сможете увидеть развитие континента от самого зарождения до наших дней. Проследите за основными событиями, которые сформировали пейзажи и дикую природу Европы. Ни один другой континент не может похвастаться таким разнообразием пейзажей и дикой природы, расположенных в одном маленьком месте. Так что же определило это невероятное разнообразие? Потрясающая работа британских ученых, основанная на детальном и всестороннем изучении минувших эпох, а так же самые последние достижения компьютерной и кинематографической техники позволят вам взглянуть на происходящее глазами первобытных людей! Испытайте на себе дикий мир Европы!
Страна: Великобритания
Студия: BBC
Продолжительность: 4 х ~ 00:49:00
Перевод: Профессиональный одноголосый
Кодек: MPEG-4 AVC
Качество: DVDRip-AVC
Видео: 720x572@1024x572, ~ 3200 Кбит/с, 25,000 fps
Звук: Русский, английский (АС3, 2 ch, 192 Кбит/с)
Субтитры: Русские
Семпл
01. Возникновение / Genesis
02. Ледниковый период / Ice ages
03. Покорение природы / Taming the wild
04. Новое тысячелетие / A New Millenium
x264 [info]: frame I:487 Avg QP:17.50 size: 62861
x264 [info]: frame P:19849 Avg QP:20.13 size: 28647
x264 [info]: frame B:52952 Avg QP:22.77 size: 11251
---------------------------------------------------------------------
General
Unique ID : 227827608208217254075206559810020509826 (0xAB660053ED74581687E5E1C26B310882)
Complete name : J:BBC.Wild.Europe.2005.x264.DVDRip.(AVC)\02.Ice ages.mkv
Format : Matroska
Format version : Version 2
File size : 1.25 GiB
Duration : 48mn 59s
Overall bit rate : 3 640 Kbps
Movie name : BBC. Wild Europe / 02. Ice ages / 2005 / Rip by PowerRock / ExKinoRay
Encoded date : UTC 2015-06-06 16:45:50
Writing application : mkvmerge v7.8.0 ('River Man') 32bit built on Apr 3 2015 12:11:22
Writing library : libebml v1.3.1 + libmatroska v1.4.2
Attachements : cover.jpg
Video
ID : 1
Format : AVC
Format/Info : Advanced Video Codec
Format profile : High@L4.1
Format settings, CABAC : Yes
Format settings, ReFrames : 8 frames
Codec ID : V_MPEG4/ISO/AVC
Duration : 48mn 59s
Bit rate : 3 252 Kbps
Width : 720 pixels
Height : 572 pixels
Display aspect ratio : 16:9
Frame rate mode : Constant
Frame rate : 25.000 fps
Color space : YUV
Chroma subsampling : 4:2:0
Bit depth : 8 bits
Scan type : Progressive
Bits/(Pixel*Frame) : 0.316
Stream size : 1.09 GiB (87%)
Title : BBC. Wild Europe / 02. Ice ages / 2005
Writing library : x264 core 146 r2538 121396c
Encoding settings : cabac=1 / ref=8 / deblock=1:-3:-3 / analyse=0x3:0x113 / me=umh / subme=10 / psy=1 / psy_rd=1.00:0.10 / mixed_ref=1 / me_range=32 / chroma_me=1 / trellis=2 / 8x8dct=1 / cqm=0 / deadzone=21,11 / fast_pskip=0 / chroma_qp_offset=-3 / threads=6 / lookahead_threads=1 / sliced_threads=0 / nr=0 / decimate=1 / interlaced=0 / bluray_compat=0 / constrained_intra=0 / bframes=7 / b_pyramid=2 / b_adapt=2 / b_bias=0 / direct=3 / weightb=1 / open_gop=0 / weightp=2 / keyint=250 / keyint_min=23 / scenecut=40 / intra_refresh=0 / rc_lookahead=50 / rc=2pass / mbtree=1 / bitrate=3252 / ratetol=1.0 / qcomp=0.60 / qpmin=10 / qpmax=51 / qpstep=4 / cplxblur=20.0 / qblur=0.5 / vbv_maxrate=14000 / vbv_bufsize=14000 / nal_hrd=none / filler=0 / ip_ratio=1.40 / aq=1:1.00
Default : Yes
Forced : No
Audio #1
ID : 2
Format : AC-3
Format/Info : Audio Coding 3
Mode extension : CM (complete main)
Format settings, Endianness : Big
Codec ID : A_AC3
Duration : 48mn 59s
Bit rate mode : Constant
Bit rate : 192 Kbps
Channel(s) : 2 channels
Channel positions : Front: L R
Sampling rate : 48.0 KHz
Compression mode : Lossy
Stream size : 67.3 MiB (5%)
Language : Russian
Default : Yes
Forced : No
Audio #2
ID : 3
Format : AC-3
Format/Info : Audio Coding 3
Mode extension : CM (complete main)
Format settings, Endianness : Big
Codec ID : A_AC3
Duration : 48mn 59s
Bit rate mode : Constant
Bit rate : 192 Kbps
Channel(s) : 2 channels
Channel positions : Front: L R
Sampling rate : 48.0 KHz
Compression mode : Lossy
Stream size : 67.3 MiB (5%)
Language : English
Default : No
Forced : No
Text
ID : 4
Format : UTF-8
Codec ID : S_TEXT/UTF8
Codec ID/Info : UTF-8 Plain Text
Language : Russian
Default : Yes
Forced : No
Menu
00:00:00.000 : :chapter 01
00:08:52.000 : :chapter 02
00:08:29.000 : :chapter 03
00:27:15.000 : :chapter 04
00:38:19.000 : :chapter 05




Релиз от:



   Похожие торренты   Торрент   Размер 
В этой теме нет новых непрочитанных сообщений. BBC. Европа. История континента / BBC. Wild Europe (2005) DVDRip-AVC

134 | 25

3.06 ГБ

В этой теме нет новых непрочитанных сообщений. BBC: Европа. История континента / BBC: Wild Europe (2005) DVDRip

6 | 2

2.73 ГБ

В этой теме нет новых непрочитанных сообщений. BBC: Новая Европа с Майклом Пэйлином / BBC: New Europe With Michael Palin [1-7 из 7] (2007) DVDRip от ExKinoRay

47 | 13

4.79 ГБ

В этой теме нет новых непрочитанных сообщений. Восьмибитная Европа / Europe in 8 bits (2013) WEBRip-AVC | Sub

169 | 1

615.44 МБ

В этой теме нет новых непрочитанных сообщений. Европа и Италия / Europe and Italy (1999) WEBRip

210 | 6

25.54 МБ

В этой теме нет новых непрочитанных сообщений. Мертвая Европа / Dead Europe (2012) WEB-DLRip | A

139 | 17

1.47 ГБ

В этой теме нет новых непрочитанных сообщений. Commander: Европа в огне / Commander: Europe at War (2007) PC

129 | 5

112.05 МБ




Вы не можете начинать темы
Вы не можете отвечать на сообщения
Вы не можете редактировать свои сообщения
Вы не можете удалять свои сообщения
Вы не можете добавлять вложения

Перейти:  
Для Мосгорсуда, Роскомнадзора и рекламодателей: mosgorsud-torrent[собачка]yandex.ru
 Вход
ppkBB3cker v.2 © 2008-2014 @ PPK
[ Time : 0.675s | 14 Queries | GZIP : Off ]

Торрент трекер RUTOR.IN, Не можете зайти на rutor.org? Какой новый адрес рутор? Какое зеркало рутор? Не работает rutor.org и зеркала? Тогда наш торрент специально для вас. Rutor.in неофициальное зеркало rutor. В случае если у Вас заблокирован rutor или вдруг Вы не можете на него зайти, то Вы без труда сможете скачать бесплатно и без рекламы последние новинки кино, игр, сериалов и прочего у нас, на Rutor.in. Не нужно использовать прокси, чтобы зайти на рутор, достаточно воспользоваться нашим ресурсом. Все новые фильмы, игры, сериалы, книги и музыка за 2013 и 2014 годы через торрент бесплатно. Скачивайте фильмы в хорошем качестве, игры для пк, xbox, playstation без регистрации. У нас вы найдете новые Зарубежные сериалы и Русские сериалы 2013, 2014, 2015 годов. Оставайтесь с нами, качайте любимые фильмы, игры, сериалы, книги и музыку.