img image001 image001 image001 image001 image001 image001 image001 image001 image001 image001 image001 image001 image001 image001 image001

Planets Sun Sun Sun
Статистика раздачи
Автор: Nickolas3434 | Размер: 747.04 МБ | Добавлен: 12 июн 2015
Раздают: 190    Качают: 26
Скачать торрент
Скачать торрент
Описание торрента

СообщениеДобавлено: 12 июн 2015 


Информация о фильме
Название: Наша Вселенная
Оригинальное название: Our Universe
Год выхода: 2013
Жанр: Документальный, Видовой
Режиссер: Калле Макс Хофманн
О фильме:
Звездное небо было объектом внимания людей с доисторических времен. И неудивительно, ведь именно в глубинах вселенной зародилась жизнь. В наши дни, благодаря современным технологиям, самые невероятные и удивительные секреты вселенной стали доступны для понимания. Космические корабли и роботизированные зонды исследуют, сканируют и фотографируют миллиарды отдаленных планет. С помощью уникальной передовой технологии "Наша вселенная 3D" даст вам возможность насладиться сногсшибательными видами и разгадать необыкновенные звездные феномены, не выходя из дома.

Страна: США
Продолжительность: 00:51:33
Перевод: Профессиональный (дублированный)
Файл
Кодек: H.264
Качество: BDRip-AVC
Видео: 1024*576 (16:9), 23.976 fps, MPEG4 / AVC ~1800 kbps avg, 0.127 bit/pixel
Аудио: 48 kHz, AC3 Dolby Digital, 2/0 (L,R) ch, ~224.00 kbps avg
Субтитры: Русские
General
Unique ID : 174437468314771214742583126888499616906 (0x833B6F328C4BCF3F8ACA6E7F80979C8A)
Complete name : C:UsersDesktopФильмыOur.Universe.2013.BDRip-AVC.by_RockeT.mkv
Format : Matroska
Format version : Version 2
File size : 747 MiB
Duration : 51mn 33s
Overall bit rate : 2 026 Kbps
Encoded date : UTC 2014-01-05 03:39:55
Writing application : mkvmerge v5.8.0 ('No Sleep / Pillow') built on Sep 2 2012 15:37:04
Writing library : libebml v1.2.3 + libmatroska v1.3.0
Video
ID : 1
Format : AVC
Format/Info : Advanced Video Codec
Format profile : High@L3.1
Format settings, CABAC : Yes
Format settings, ReFrames : 10 frames
Codec ID : V_MPEG4/ISO/AVC
Duration : 51mn 33s
Bit rate : 1 800 Kbps
Width : 1 024 pixels
Height : 576 pixels
Display aspect ratio : 16:9
Frame rate mode : Constant
Frame rate : 23.976 fps
Color space : YUV
Chroma subsampling : 4:2:0
Bit depth : 8 bits
Scan type : Progressive
Bits/(Pixel*Frame) : 0.127
Stream size : 650 MiB (87%)
Writing library : x264 core 125 r2208 d9d2288
Encoding settings : cabac=1 / ref=10 / deblock=1:-1:-1 / analyse=0x3:0x133 / me=umh / subme=10 / psy=1 / psy_rd=1.00:0.15 / mixed_ref=1 / me_range=32 / chroma_me=1 / trellis=2 / 8x8dct=1 / cqm=0 / deadzone=21,11 / fast_pskip=1 / chroma_qp_offset=-3 / threads=3 / lookahead_threads=1 / sliced_threads=0 / nr=0 / decimate=1 / interlaced=0 / bluray_compat=0 / constrained_intra=0 / bframes=8 / b_pyramid=2 / b_adapt=2 / b_bias=0 / direct=3 / weightb=1 / open_gop=0 / weightp=2 / keyint=250 / keyint_min=23 / scenecut=40 / intra_refresh=0 / rc_lookahead=50 / rc=2pass / mbtree=1 / bitrate=1800 / ratetol=1.0 / qcomp=0.60 / qpmin=0 / qpmax=69 / qpstep=4 / cplxblur=20.0 / qblur=0.5 / ip_ratio=1.40 / aq=1:1.00
Default : Yes
Forced : No
Audio
ID : 2
Format : AC-3
Format/Info : Audio Coding 3
Mode extension : CM (complete main)
Format settings, Endianness : Big
Codec ID : A_AC3
Duration : 51mn 33s
Bit rate mode : Constant
Bit rate : 224 Kbps
Channel(s) : 2 channels
Channel positions : Front: L R
Sampling rate : 48.0 KHz
Bit depth : 16 bits
Compression mode : Lossy
Stream size : 82.6 MiB (11%)
Default : Yes
Forced : No



Релиз от:
Автор Рипа: RockeT



   Похожие торренты   Торрент   Размер 
В этой теме нет новых непрочитанных сообщений. Наша Вселенная / Our Universe (2013) BDRip от -=HD-NET=-

401 | 13

551.24 МБ

В этой теме нет новых непрочитанных сообщений. Наша Вселенная / Our Universe (2013) BDRip 720p от denis 100

159 | 16

2.18 ГБ

В этой теме нет новых непрочитанных сообщений. Наша Вселенная / Our Universe (2013) BDRip 1080p от denis 100

172 | 22

4.37 ГБ

В этой теме нет новых непрочитанных сообщений. Наша Вселенная / Our Universe (2013) BDRip 1080p | 3D-Video | halfOU

841 | 41

3.84 ГБ

В этой теме нет новых непрочитанных сообщений. Известная Вселенная: С космической скоростью / Known Universe: Speeding Through the Universe (2009) SATRip

0 | 17

551.62 МБ

В этой теме нет новых непрочитанных сообщений. Вселенная / The Universe [S03] (2008) BDRip | A

5 | 4

7.85 ГБ

В этой теме нет новых непрочитанных сообщений. Наша Вселенная 3D / Our Universe 3D (2013) HDRip от R.G.RealMT | D

67 | 11

835.18 МБ




Вы не можете начинать темы
Вы не можете отвечать на сообщения
Вы не можете редактировать свои сообщения
Вы не можете удалять свои сообщения
Вы не можете добавлять вложения

Перейти:  
Для Мосгорсуда, Роскомнадзора и рекламодателей: mosgorsud-torrent[собачка]yandex.ru
 Вход
ppkBB3cker v.2 © 2008-2014 @ PPK
[ Time : 1.540s | 16 Queries | GZIP : On ]

Торрент трекер RUTOR.IN, Не можете зайти на rutor.org? Какой новый адрес рутор? Какое зеркало рутор? Не работает rutor.org и зеркала? Тогда наш торрент специально для вас. Rutor.in неофициальное зеркало rutor. В случае если у Вас заблокирован rutor или вдруг Вы не можете на него зайти, то Вы без труда сможете скачать бесплатно и без рекламы последние новинки кино, игр, сериалов и прочего у нас, на Rutor.in. Не нужно использовать прокси, чтобы зайти на рутор, достаточно воспользоваться нашим ресурсом. Все новые фильмы, игры, сериалы, книги и музыка за 2013 и 2014 годы через торрент бесплатно. Скачивайте фильмы в хорошем качестве, игры для пк, xbox, playstation без регистрации. У нас вы найдете новые Зарубежные сериалы и Русские сериалы 2013, 2014, 2015 годов. Оставайтесь с нами, качайте любимые фильмы, игры, сериалы, книги и музыку.