img image001 image001 image001 image001 image001 image001 image001 image001 image001 image001 image001 image001 image001 image001 image001

Planets Sun Sun Sun
Статистика раздачи
Автор: Nickolas3434 | Размер: 7.79 ГБ | Добавлен: 17 июн 2015
Раздают: 13    Качают: 5
Скачать торрент
Скачать торрент
Описание торрента

СообщениеДобавлено: 17 июн 2015 


Информация о фильме
Название: Выжить вместе
Оригинальное название: Dual Survival
Год выхода: 2014
Жанр: Документальный, путешествия
Режиссер: Райан Миллер,Бенгт Андерсон,Брайан Рейчелт
В ролях: Джо Тети, Коди Ландин, Мэтт Грэм
О фильме:
Бывший морской пехотинец Джо Тетай и профессиональный инструктор по выживанию Коди Ландин снова отправляются в самые негостеприимные места на Земле и демонстрируют необходимые для выживания навыки.

Страна: США
Студия: Discovery Channel
Продолжительность: 00;44;00
Перевод: Профессиональный многоголосый
Файл
Кодек: AVC
Качество: HDTVRip 360P
Видео: AVC;640x360P (16x9);25fps;2212 Kbps
Звук: AAC;48,0 kHz;2 ch;320 Kbps
Субтитры: Отсутствуют
Семпл

4x01 No End in Sight - Part 1
4x02 No End in Sight - Part 2
4x03 Deadly Dunes
4x04 Glacial Downfall
4x05 Journey's End to a New Beginning
4x06 No Man Is an Island
4x07 Mayan Mayhem
4x08 On the Edge
4x09 End of the Road
4x10 One Shot, One Kill

Формат : MPEG-4
Профиль формата : Base Media
Идентификатор кодека : isom
Размер файла : 797 Мбайт
Продолжительность : 43 м.
Общий поток : 2538 Кбит/сек
Программа кодирования : Lavf55.12.100
Видео
Идентификатор : 2
Формат : AVC
Формат/Информация : Advanced Video Codec
Профиль формата : Main@L3
Параметр CABAC формата : Да
Параметр ReFrames формата : 4 кадра
Идентификатор кодека : avc1
Идентификатор кодека/Информация : Advanced Video Coding
Продолжительность : 43 м.
Битрейт : 2212 Кбит/сек
Ширина : 640 пикселей
Высота : 360 пикселей
Соотношение сторон : 16:9
Режим частоты кадров : Постоянный
Частота кадров : 25,000 кадров/сек
Цветовое пространство : YUV
Субдискретизация насыщенности : 4:2:0
Битовая глубина : 8 бит
Тип развёртки : Прогрессивная
Бит/(Пиксели*Кадры) : 0.384
Размер потока : 695 Мбайт (87%)
Аудио
Идентификатор : 1
Формат : AAC
Формат/Информация : Advanced Audio Codec
Профиль формата : LC
Идентификатор кодека : 40
Продолжительность : 43 м.
Duration_LastFrame : -9 мс.
Вид битрейта : Постоянный
Битрейт : 320 Кбит/сек
Каналы : 2 канала
Расположение каналов : Front: L R
Частота : 48,0 КГц
Метод сжатия : С потерями
Размер потока : 101 Мбайт (13%)
Язык : Russian



   Похожие торренты   Торрент   Размер 
В этой теме нет новых непрочитанных сообщений. Discovery. Выжить вместе / Выжить вдвоем / Dual Survival [S04] (2014) HDTVRip 720p от GeneralFilm | P

159 | 15

13.47 ГБ

В этой теме нет новых непрочитанных сообщений. Discovery. Выжить вместе / Выжить вдвоем / Dual Survival [05х01 из 09] (2014) HDTVRip 720p от GeneralFilm | P

13 | 5

2.58 ГБ

В этой теме нет новых непрочитанных сообщений. Discovery. Выжить вместе / Выжить вдвоем / Dual Survival [05х01 из 09] (2014) HDTVRip 720p от GeneralFilm | P

7 | 0

1.29 ГБ

В этой теме нет новых непрочитанных сообщений. Discovery. Выжить вместе / Выжить вдвоем / Dual Survival [05х01 из 09] (2014) HDTVRip 720p от GeneralFilm | P

17 | 1

3.87 ГБ

В этой теме нет новых непрочитанных сообщений. Discovery. Выжить вместе / Выжить вдвоем / Dual Survival [05х01 из 09] (2014) HDTVRip 720p от GeneralFilm | P

4 | 10

5.17 ГБ

В этой теме нет новых непрочитанных сообщений. Discovery. Выжить вместе / Выжить вдвоем / Dual Survival [05х01 из 09] (2014) HDTVRip 720p от GeneralFilm | P

6 | 1

6.46 ГБ

В этой теме нет новых непрочитанных сообщений. Discovery. Выжить вместе / Dual Survival [S04] (2014) HDTVRip от GeneralFilm | P

55 | 35

5.94 ГБ




Вы не можете начинать темы
Вы не можете отвечать на сообщения
Вы не можете редактировать свои сообщения
Вы не можете удалять свои сообщения
Вы не можете добавлять вложения

Перейти:  
Для Мосгорсуда, Роскомнадзора и рекламодателей: mosgorsud-torrent[собачка]yandex.ru
 Вход
ppkBB3cker v.2 © 2008-2014 @ PPK
[ Time : 0.044s | 15 Queries | GZIP : Off ]

cron