img image001 image001 image001 image001 image001 image001 image001 image001 image001 image001 image001 image001 image001 image001 image001

Planets Sun Sun Sun
Статистика раздачи
Автор: Nickolas3434 | Размер: 697.1 МБ | Добавлен: 19 июн 2015
Раздают: 49    Качают: 20
Скачать торрент
Скачать торрент
Описание торрента

СообщениеДобавлено: 19 июн 2015 


Информация о фильме
Название: Мумии: Секреты фараонов
Оригинальное название: Mummies: Secrets of the Pharaohs
Год выхода: 2007
Жанр: Документальный
Режиссер: Кейт Мелтон
О фильме:
Вы переноситесь в увлекательный и красивый мир древнего Египта. Это археологическое и научное приключение по следам исследователей и первооткрывателей, из рассказа которых складывается представление о культуре древнего Египта, о секретах мумий, о генетических находках.

Страна: США
Студия: Giant Screen Films, Gravity Pictures
Продолжительность: 00:38:41
Перевод: Профессиональный (одноголосый закадровый)
Файл
Кодек: H.264
Качество: HDRip-AVC
Видео: 1024x576 (16:9), 23,976 fps, AVC ~2317 kbps avg, 0.164 bit/pixel
Аудио: 48 kHz, AC3 Dolby Digital, 2/0 (L,R) ch, ~192.00 kbps avg
Релиз от:
Автор Рипа: RockeT
raw [info]: 1024x576p 1:1 @ 24000/1001 fps (cfr)
x264 [info]: using SAR=1/1
x264 [info]: using cpu capabilities: MMX2 SSE2Fast SSSE3 FastShuffle SSE4.2 AVX AVX2 FMA3 BMI1 BMI2
x264 [info]: profile High, level 4.0
x264 [info]: frame I:301 Avg QP:15.00 size:150568
x264 [info]: frame P:12961 Avg QP:17.85 size: 33134
x264 [info]: frame B:42406 Avg QP:23.18 size: 4716
x264 [info]: consecutive B-frames: 1.1% 2.3% 3.9% 58.1% 10.2% 15.1% 3.1% 3.6% 1.2% 1.3%
x264 [info]: mb I I16..4: 13.4% 50.4% 36.1%
x264 [info]: mb P I16..4: 1.4% 3.4% 1.0% P16..4: 45.6% 15.9% 19.5% 1.8% 0.9% skip:10.4%
x264 [info]: mb B I16..4: 0.1% 0.2% 0.1% B16..8: 35.7% 5.2% 1.8% direct: 3.6% skip:53.4% L0:38.6% L1:46.5% BI:14.9%
x264 [info]: 8x8 transform intra:55.5% inter:48.6%
x264 [info]: direct mvs spatial:95.9% temporal:4.1%
x264 [info]: coded y,uvDC,uvAC intra: 77.0% 74.1% 55.5% inter: 16.7% 15.9% 3.8%
x264 [info]: i16 v,h,dc,p: 59% 10% 10% 21%
x264 [info]: i8 v,h,dc,ddl,ddr,vr,hd,vl,hu: 13% 14% 9% 8% 11% 12% 12% 10% 13%
x264 [info]: i4 v,h,dc,ddl,ddr,vr,hd,vl,hu: 12% 14% 6% 8% 11% 11% 13% 10% 15%
x264 [info]: i8c dc,h,v,p: 46% 25% 18% 10%
x264 [info]: Weighted P-Frames: Y:13.9% UV:7.1%
x264 [info]: ref P L0: 53.2% 13.4% 13.7% 5.9% 3.9% 3.4% 2.7% 1.7% 1.7% 0.4% 0.0%
x264 [info]: ref B L0: 78.2% 10.1% 5.1% 2.3% 1.8% 1.4% 0.8% 0.3%
x264 [info]: ref B L1: 91.0% 9.0%
x264 [info]: kb/s:2324.86
x264 [total]: encoded 55668 frames, 3.54 fps, 2324.86 kb/s

General
Unique ID : 194177598954076664341819653691933390487 (0x92153EC7C0BD47FA8D530BF7EDBAF697)
Complete name : C:UsersDesktopФильмыMummies.Secrets of.the.Pharaohs.2007.HDRip-AVC.by_RockeT[KazTorrentS].mkv
Format : Matroska
Format version : Version 2
File size : 697 MiB
Duration : 38mn 41s
Overall bit rate : 2 519 Kbps
Encoded date : UTC 2015-06-16 22:49:02
Writing application : mkvmerge v5.8.0 ('No Sleep / Pillow') built on Sep 2 2012 15:37:04
Writing library : libebml v1.2.3 + libmatroska v1.3.0
Video
ID : 1
Format : AVC
Format/Info : Advanced Video Codec
Format profile : High@L4.0
Format settings, CABAC : Yes
Format settings, ReFrames : 9 frames
Codec ID : V_MPEG4/ISO/AVC
Duration : 38mn 41s
Bit rate : 2 327 Kbps
Width : 1 024 pixels
Height : 576 pixels
Display aspect ratio : 16:9
Frame rate mode : Constant
Frame rate : 23.976 fps
Color space : YUV
Chroma subsampling : 4:2:0
Bit depth : 8 bits
Scan type : Progressive
Bits/(Pixel*Frame) : 0.165
Stream size : 630 MiB (90%)
Writing library : x264 core 125 r2208 d9d2288
Encoding settings : cabac=1 / ref=9 / deblock=1:-1:-1 / analyse=0x3:0x133 / me=umh / subme=9 / psy=1 / psy_rd=1.00:0.10 / mixed_ref=1 / me_range=16 / chroma_me=1 / trellis=2 / 8x8dct=1 / cqm=0 / deadzone=21,11 / fast_pskip=0 / chroma_qp_offset=-3 / threads=6 / lookahead_threads=1 / sliced_threads=0 / nr=0 / decimate=1 / interlaced=0 / bluray_compat=0 / constrained_intra=0 / bframes=9 / b_pyramid=2 / b_adapt=2 / b_bias=0 / direct=3 / weightb=1 / open_gop=0 / weightp=2 / keyint=250 / keyint_min=23 / scenecut=40 / intra_refresh=0 / rc_lookahead=50 / rc=2pass / mbtree=1 / bitrate=2327 / ratetol=1.0 / qcomp=0.60 / qpmin=0 / qpmax=69 / qpstep=4 / cplxblur=20.0 / qblur=0.5 / ip_ratio=1.40 / aq=1:1.00
Default : Yes
Forced : No
Audio
ID : 2
Format : AC-3
Format/Info : Audio Coding 3
Mode extension : CM (complete main)
Format settings, Endianness : Big
Codec ID : A_AC3
Duration : 38mn 41s
Bit rate mode : Constant
Bit rate : 192 Kbps
Channel(s) : 2 channels
Channel positions : Front: L R
Sampling rate : 48.0 KHz
Bit depth : 16 bits
Compression mode : Lossy
Stream size : 53.1 MiB (8%)
Default : Yes
Forced : No




   Похожие торренты   Торрент   Размер 
В этой теме нет новых непрочитанных сообщений. IMAX - Мумии: Секреты фараонов / IMAX - Mummies: Secrets of the Pharaohs (2007) BDRip от GeneralFilm

50 | 4

549.39 МБ

В этой теме нет новых непрочитанных сообщений. Мумии: Секреты фараонов / Mummies: Secrets of the Pharaohs (2007) BDRip 720p от ExKinoRay | IMAX

63 | 9

2.19 ГБ

В этой теме нет новых непрочитанных сообщений. Мумии: Секреты фараонов / IMAX - Mummies: Secrets of the Pharaohs (2007) BDRip 1080p | 3D-Video

26 | 4

4.36 ГБ

В этой теме нет новых непрочитанных сообщений. Мумии: Секреты фараонов / Mummies: Secrets of the Pharaohs (2007) HDRip от R.G.RealMT | P1

5 | 2

636.85 МБ

В этой теме нет новых непрочитанных сообщений. Мумии: Секреты фараонов / Mummies: Secret of the Pharaohs (2007) BDRip 720p | IMAX

0 | 2

2.36 ГБ

В этой теме нет новых непрочитанных сообщений. Мумии возвращаются / Ожившие мумии / Mummies alive [Полный 1 сезон] (1997) DVDRip

8 | 21

10.14 ГБ

В этой теме нет новых непрочитанных сообщений. Тутанхамончик: Битва фараонов / Тутенштейн: Битва фараонов / Tutenstein: Clash of the Pharaohs (2008) DVDRip от New-Team | P

106 | 13

745.04 МБ




Вы не можете начинать темы
Вы не можете отвечать на сообщения
Вы не можете редактировать свои сообщения
Вы не можете удалять свои сообщения
Вы не можете добавлять вложения

Перейти:  
Для Мосгорсуда, Роскомнадзора и рекламодателей: mosgorsud-torrent[собачка]yandex.ru
 Вход
ppkBB3cker v.2 © 2008-2014 @ PPK
[ Time : 0.048s | 16 Queries | GZIP : Off ]

Торрент трекер RUTOR.IN, Не можете зайти на rutor.org? Какой новый адрес рутор? Какое зеркало рутор? Не работает rutor.org и зеркала? Тогда наш торрент специально для вас. Rutor.in неофициальное зеркало rutor. В случае если у Вас заблокирован rutor или вдруг Вы не можете на него зайти, то Вы без труда сможете скачать бесплатно и без рекламы последние новинки кино, игр, сериалов и прочего у нас, на Rutor.in. Не нужно использовать прокси, чтобы зайти на рутор, достаточно воспользоваться нашим ресурсом. Все новые фильмы, игры, сериалы, книги и музыка за 2013 и 2014 годы через торрент бесплатно. Скачивайте фильмы в хорошем качестве, игры для пк, xbox, playstation без регистрации. У нас вы найдете новые Зарубежные сериалы и Русские сериалы 2013, 2014, 2015 годов. Оставайтесь с нами, качайте любимые фильмы, игры, сериалы, книги и музыку.