img image001 image001 image001 image001 image001 image001 image001 image001 image001 image001 image001 image001 image001 image001 image001

Planets Sun Sun Sun
Статистика раздачи
Автор: Nickolas3434 | Размер: 3.08 ГБ | Добавлен: 24 июн 2015
Раздают: 99    Качают: 28
Скачать торрент
Скачать торрент
Описание торрента

СообщениеДобавлено: 24 июн 2015 


Информация о фильме
Название: Америка: факты и домыслы
Оригинальное название: America: Facts vs. Fiction
Год выхода: 2014
Жанр: Документальный, постановочный, история
Режиссер: Kevin R. Hershberger
В ролях: Jamie Kaler, Eláyne Paola Coba, Randy Jay Burrell
О фильме:
Возможно, вы думаете, что знаете историю Америки. Но зачастую помнят только легенды, а не правду. Реальная жизнь сложна - домыслы гораздо проще. С ведущим Джейми Келером попробуем промыть песок истории и узнаем где правда, а где вымысел в удивительных историях США.
01. Не всё то золото, что блестит / Fool's Gold
Что на самом деле стояло за величайшим экономическим бумом Америки? Какую роль сыграла в истории этой страны золотая лихорадка и крах рынка ценных бумаг 1929 года?
02. Последний человеческий оплот / Last Man Standing
Подлинная история Аламо и "Последнего оплота Кастера" заметно отличается от официальной версии. Как же на самом деле погиб Дэви Крокетт?
03. Затерянные в море / Lost at Sea
Что делали пираты со своими сокровищами? Ведь не закапывали в землю? И что стоит за таинственными исчезновениями судов в Бермудском треугольнике?
04. Стволы и алкоголь / Booze and Bullets
Подлинная история Америки окружена легендами и тайнами. Что на самом деле стало причиной введения сухого закона? Кем в реальности были известные преступники Бонни и Клайд?
05. Паттон и Грант / Patton and Grant
Имена величайших генералов Америки окружены мифами. Знаете ли вы, откуда пошло прозвище Джорджа Паттона «Кровь и кишки»?
06. Вся правда о звёздно-полосатом / Red, White and True?
Немало мифов связано с патриотическими символами Америки. Правда ли, что Статую свободы изначально собирались поставить в Египте? И кто на самом деле придумал флаг США?
07. Героини военного времени / Wartime Rosies
Во время Второй мировой отважные женщины не только шли трудиться на заводы. В Америке был целый женский отряд пилотов ВВС. Из них 38 погибли при исполнении обязанностей.
08. Мастера иллюзий / Masters of Illusion
Действительно ли Гарри Гудини погиб, пытаясь выбраться из своей легендарной камеры пыток? Правда ли Финеас Барнум удвоил доходы, фабрикуя мифы о своих экспонатах?
09. Увидеть не значит поверить / Seeing Isn't Believing
Фотоискусство — важный инструмент в руках истории, но и оно не безупречно. Какой секрет скрывает один из наиболее известных портретов президента Линкольна?
10. Что было в Вегасе… / What Happens in Vegas...
Отнюдь не игорный бизнес принёс первые миллиарды в экономику Невады. Тогда как всё началось на самом деле? Какие секреты скрывают строители плотины Гувера?
11. Покорители небес / Conquering the Sky
Истории о первых авиаторах давно уже обросли выдумками. А как на самом деле создавался самолёт братьев Райт?
12. Чудеса инженерной мысли / Engineering the Impossible
Как мало мы знаем о самых известных инженерных проектах! Куда на самом деле ведёт Панамский канал? А кто завершил строительство трансконтинентальной железной дороги?

Официальный сайт
Страна: США
Студия: Workaholic Productions for American Heroes Channel (AHC)
Продолжительность: ~ 00:22:00 серия
Перевод: Профессиональный (одноголосый закадровый)
Файл
Кодек: XviD / AC3
Качество: SATRip
Видео: MPEG4, XviD, 720x400 (16:9), 25.000 fps, 1 796 Kbps (0.249 bit/pixel)
Звук: AC-3, 48.0 KHz, 2 ch, 192 Kbps, CBR
General
Complete name : 01_Fool's Gold.avi
Format : AVI
Format/Info : Audio Video Interleave
File size : 316 MiB
Duration : 22mn 6s
Overall bit rate : 1 995 Kbps
Writing application : TMPGEnc Video Mastering Works 5 Version. 5.0.6.38
Writing library : TMPGEnc Video Mastering Works 5 Version. 5.0.6.38
Video
ID : 0
Format : MPEG-4 Visual
Format profile : Advanced Simple@L5
Format settings, BVOP : 2
Format settings, QPel : No
Format settings, GMC : No warppoints
Format settings, Matrix : Default (H.263)
Muxing mode : Packed bitstream
Codec ID : XVID
Codec ID/Hint : XviD
Duration : 22mn 6s
Bit rate : 1 796 Kbps
Width : 720 pixels
Height : 400 pixels
Display aspect ratio : 16:9
Frame rate : 25.000 fps
Color space : YUV
Chroma subsampling : 4:2:0
Bit depth : 8 bits
Scan type : Progressive
Compression mode : Lossy
Bits/(Pixel*Frame) : 0.249
Stream size : 284 MiB (90%)
Writing library : XviD 73
Audio
ID : 1
Format : AC-3
Format/Info : Audio Coding 3
Mode extension : CM (complete main)
Format settings, Endianness : Big
Codec ID : 2000
Duration : 22mn 6s
Bit rate mode : Constant
Bit rate : 192 Kbps
Channel(s) : 2 channels
Channel positions : Front: L R
Sampling rate : 48.0 KHz
Bit depth : 16 bits
Compression mode : Lossy
Stream size : 30.4 MiB (10%)
Alignment : Aligned on interleaves
Interleave, duration : 480 ms (12.00 video frames)



   Похожие торренты   Торрент   Размер 
В этой теме нет новых непрочитанных сообщений. Америка: факты и домыслы / America: Facts vs. Fiction [02x01-06] (2014) SATRip | P1

141 | 63

1.85 ГБ

В этой теме нет новых непрочитанных сообщений. Америка: факты и домыслы / America: Facts vs. Fiction [02x01-06] (2014) SATRip | P1

64 | 11

3.7 ГБ

В этой теме нет новых непрочитанных сообщений. Топ Гир Америка / Top Gear America (USA) [02x01-07] (2011) HDTVRip | Jetvis Studio

1 | 3

2.52 ГБ

В этой теме нет новых непрочитанных сообщений. Страшные реальные факты / Horror real facts [Часть 4] (2016) WEBRip 720p

21 | 1

338.59 МБ

В этой теме нет новых непрочитанных сообщений. Страшные реальные факты / Horror real facts [Часть 1] (2016) WEBRip 720p

785 | 112

7.24 ГБ

В этой теме нет новых непрочитанных сообщений. Страшные реальные факты / Horror real facts [Часть 2] (2016) WEBRip 720p

1253 | 646

842.66 МБ

В этой теме нет новых непрочитанных сообщений. Страшные реальные факты / Horror real facts [Часть 3] (2016) WEBRip 720p

10 | 1

365.59 МБ




Вы не можете начинать темы
Вы не можете отвечать на сообщения
Вы не можете редактировать свои сообщения
Вы не можете удалять свои сообщения
Вы не можете добавлять вложения

Перейти:  
Для Мосгорсуда, Роскомнадзора и рекламодателей: mosgorsud-torrent[собачка]yandex.ru
 Вход
ppkBB3cker v.2 © 2008-2014 @ PPK
[ Time : 0.029s | 14 Queries | GZIP : Off ]

Торрент трекер RUTOR.IN, Не можете зайти на rutor.org? Какой новый адрес рутор? Какое зеркало рутор? Не работает rutor.org и зеркала? Тогда наш торрент специально для вас. Rutor.in неофициальное зеркало rutor. В случае если у Вас заблокирован rutor или вдруг Вы не можете на него зайти, то Вы без труда сможете скачать бесплатно и без рекламы последние новинки кино, игр, сериалов и прочего у нас, на Rutor.in. Не нужно использовать прокси, чтобы зайти на рутор, достаточно воспользоваться нашим ресурсом. Все новые фильмы, игры, сериалы, книги и музыка за 2013 и 2014 годы через торрент бесплатно. Скачивайте фильмы в хорошем качестве, игры для пк, xbox, playstation без регистрации. У нас вы найдете новые Зарубежные сериалы и Русские сериалы 2013, 2014, 2015 годов. Оставайтесь с нами, качайте любимые фильмы, игры, сериалы, книги и музыку.