img image001 image001 image001 image001 image001 image001 image001 image001 image001 image001 image001 image001 image001 image001 image001

Planets Sun Sun Sun
Статистика раздачи
Автор: Nickolas3434 | Размер: 21.74 ГБ | Добавлен: 25 июн 2015
Раздают: 143    Качают: 66
Скачать торрент
Скачать торрент
Описание торрента

СообщениеДобавлено: 25 июн 2015 


Название: История Жизни
Оригинальное название: Life Story
Год выхода: 2014
Жанр: Документальный, флора, фауна
Режиссер: Дэвид Аттенборо
О фильме: История Жизни, рассказанная Дэвидом Аттенборо, переносит нас в величайшее из всех приключений - путешествие по жизни. Любое животное, ведомое инстинктом, озабочено тем, чтобы оставить после себя потомство, передать свои гены последующим поколениям. Быть может для них это своеобразная, связующая нить между прошлым и будущим. Путешествие по бурным водам жизни полно страданий, трудностей и самоотверженности. Порой их поведение непредсказуемо, изысканно утончённо и исполненно нежности. Но несмотря на брошенный ими вызов стихиям природы, они борются и побеждают, передавая свою стойкость характера последующим поколениям. Этот многосерийный фильм об этапах становления в жизни каждого животного.
Страна: Великобритания
Студия: BBC Television Centre
Продолжительность: 6 х ~ 00:58:00
Перевод: Дублированный, любительский одноголосый
Субтитры: Русские, английские
Кодек: MPEG-4 AVC
Качество: BDRip 720p
Видео: 1280x720, ~ 6500 Кбит/с, 25,000 fps
Звук: Русский (AC3, 2 ch, 192 Кбит/с), (AC3, 6 ch, 640 Кбит/с), английский (DTS, 6 ch, 1509 Кбит/c)
Семпл
1.Первые шаги-First Steps
2.Взросление-Growing Up
3.Дом-Home
4.Власть-Power
5.Ухаживание-Courtship
6.Родители-Parenthood
General
Unique ID : 200299704546654912295101871517848379429 (0x96B051E3E8247908A1506BE02E512025)
Complete name : F:BBC.Life.Story.2014.x264.BDRip.(720p)\01.First steps.mkv
Format : Matroska
Format version : Version 2
File size : 3.60 GiB
Duration : 58mn 14s
Overall bit rate : 8 842 Kbps
Movie name : BBC: Life Story-First Steps / 2014 / Rip by PowerRock / ExKinoRay
Encoded date : UTC 2015-06-22 18:08:45
Writing application : mkvmerge v7.8.0 ('River Man') 32bit built on Apr 3 2015 12:11:22
Writing library : libebml v1.3.1 + libmatroska v1.4.2
Attachements : cover.jpg
DURATION : 00:57:36.460000000
NUMBER_OF_FRAMES : 474
NUMBER_OF_BYTES : 19868
_STATISTICS_WRITING_APP : mkvmerge v7.7.0 ('Six Voices') 64bit built on Feb 28 2015 23:39:33
_STATISTICS_WRITING_DATE_UT : 2015-04-06 16:59:35
_STATISTICS_TAGS : BPS DURATION NUMBER_OF_FRAMES NUMBER_OF_BYTES
Video
ID : 1
Format : AVC
Format/Info : Advanced Video Codec
Format profile : High@L4.1
Format settings, CABAC : Yes
Format settings, ReFrames : 10 frames
Codec ID : V_MPEG4/ISO/AVC
Duration : 58mn 14s
Bit rate : 6 325 Kbps
Width : 1 280 pixels
Height : 720 pixels
Display aspect ratio : 16:9
Frame rate mode : Constant
Frame rate : 25.000 fps
Color space : YUV
Chroma subsampling : 4:2:0
Bit depth : 8 bits
Scan type : Progressive
Bits/(Pixel*Frame) : 0.275
Stream size : 2.57 GiB (72%)
Title : BBC: Life Story-First Steps / 2014
Writing library : x264 core 130 r2273 b3065e6
Encoding settings : cabac=1 / ref=10 / deblock=1:-1:-1 / analyse=0x3:0x133 / me=umh / subme=10 / psy=1 / psy_rd=1.00:0.10 / mixed_ref=1 / me_range=32 / chroma_me=1 / trellis=2 / 8x8dct=1 / cqm=0 / deadzone=21,11 / fast_pskip=0 / chroma_qp_offset=-3 / threads=6 / lookahead_threads=1 / sliced_threads=0 / nr=0 / decimate=1 / interlaced=0 / bluray_compat=0 / constrained_intra=0 / bframes=7 / b_pyramid=2 / b_adapt=2 / b_bias=0 / direct=1 / weightb=1 / open_gop=0 / weightp=2 / keyint=250 / keyint_min=23 / scenecut=40 / intra_refresh=0 / rc_lookahead=50 / rc=crf / mbtree=1 / crf=16.0 / qcomp=0.60 / qpmin=10 / qpmax=51 / qpstep=4 / ip_ratio=1.40 / aq=1:1.00
Default : Yes
Forced : No
DURATION : 00:58:14.000000000
NUMBER_OF_FRAMES : 87350
NUMBER_OF_BYTES : 2837639325
_STATISTICS_WRITING_APP : mkvmerge v7.7.0 ('Six Voices') 64bit built on Feb 28 2015 23:39:33
_STATISTICS_WRITING_DATE_UT : 2015-04-06 16:59:35
_STATISTICS_TAGS : BPS DURATION NUMBER_OF_FRAMES NUMBER_OF_BYTES
Audio #1
ID : 2
Format : AC-3
Format/Info : Audio Coding 3
Mode extension : CM (complete main)
Format settings, Endianness : Big
Codec ID : A_AC3
Duration : 58mn 14s
Bit rate mode : Constant
Bit rate : 192 Kbps
Channel(s) : 2 channels
Channel positions : Front: L R
Sampling rate : 48.0 KHz
Compression mode : Lossy
Stream size : 80.0 MiB (2%)
Title : DUB В. Ерёмин (+ вставки VO Ю. Онищенко)
Language : Russian
Default : Yes
Forced : No
Audio #2
ID : 3
Format : AC-3
Format/Info : Audio Coding 3
Mode extension : CM (complete main)
Format settings, Endianness : Big
Codec ID : A_AC3
Duration : 58mn 14s
Bit rate mode : Constant
Bit rate : 640 Kbps
Channel(s) : 6 channels
Channel positions : Front: L C R, Side: L R, LFE
Sampling rate : 48.0 KHz
Compression mode : Lossy
Stream size : 267 MiB (7%)
Title : VO Ю. Онищенко
Language : Russian
Default : No
Forced : No
Audio #3
ID : 4
Format : DTS
Format/Info : Digital Theater Systems
Mode : 16
Format settings, Endianness : Big
Codec ID : A_DTS
Duration : 58mn 14s
Bit rate mode : Constant
Bit rate : 1 509 Kbps
Channel(s) : 6 channels
Channel positions : Front: L C R, Side: L R, LFE
Sampling rate : 48.0 KHz
Bit depth : 16 bits
Compression mode : Lossy
Stream size : 629 MiB (17%)
Language : English
Default : No
Forced : No
Text #1
ID : 5
Format : UTF-8
Codec ID : S_TEXT/UTF8
Codec ID/Info : UTF-8 Plain Text
Title : Burn in The USSR
Language : Russian
Default : Yes
Forced : No
Text #2
ID : 6
Format : UTF-8
Codec ID : S_TEXT/UTF8
Codec ID/Info : UTF-8 Plain Text
Title : Ю. Онищенко (Logos71)
Language : Russian
Default : No
Forced : No
Text #3
ID : 7
Format : UTF-8
Codec ID : S_TEXT/UTF8
Codec ID/Info : UTF-8 Plain Text
Language : English
Default : No
Forced : No
Menu
00:00:00.000 : en:00:00:00.000
00:14:27.760 : en:00:14:27.760
00:18:50.000 : en:00:18:50.000
00:27:48.240 : en:00:27:48.240
00:32:20.800 : en:00:32:20.800
00:40:03.840 : en:00:40:03.840




ЦитатаКто-то писал:
Перевод: Дублированный - текст читает В. Ерёмин (+ вставки Ю. Онищенко)
Перевод 2: Одноголосый (закадровый) - Ю. Онищенко
Субтитры: русские (Burn in The USSR), русские (Logos71), английские
Релиз от:



   Похожие торренты   Торрент   Размер 
В этой теме нет новых непрочитанных сообщений. BBC. История Жизни / Life Story [01-06] (2014) BDRip 720p от ExKinoRay

62 | 84

20.75 ГБ

В этой теме нет новых непрочитанных сообщений. BBC. История Жизни / Life Story [01-06] (2014) BDRip 720p от ExKinoRay

43 | 24

20.49 ГБ

В этой теме нет новых непрочитанных сообщений. BBC. История Жизни / Life Story [01-06] (2014) BDRip от ExKinoRay | D, P2

10 | 0

5.59 ГБ

В этой теме нет новых непрочитанных сообщений. Срок жизни / Term Life (2016) BDRip 720p от ExKinoRay | L

138 | 7

5.92 ГБ

В этой теме нет новых непрочитанных сообщений. Дракон: История жизни Брюса Ли / Dragon: The Bruce Lee Story (1993) BDRip от Generalfilm

108 | 11

2.18 ГБ

В этой теме нет новых непрочитанных сообщений. Срок жизни / Term Life (2016) BDRip 720p HEVC от ExKinoRay | L

8 | 1

6.21 ГБ

В этой теме нет новых непрочитанных сообщений. Партнеры по жизни / Life Partners (2014) BDRip 720p | P

100 | 28

4.73 ГБ




Вы не можете начинать темы
Вы не можете отвечать на сообщения
Вы не можете редактировать свои сообщения
Вы не можете удалять свои сообщения
Вы не можете добавлять вложения

Перейти:  
Для Мосгорсуда, Роскомнадзора и рекламодателей: mosgorsud-torrent[собачка]yandex.ru
 Вход
ppkBB3cker v.2 © 2008-2014 @ PPK
[ Time : 0.119s | 14 Queries | GZIP : Off ]

Торрент трекер RUTOR.IN, Не можете зайти на rutor.org? Какой новый адрес рутор? Какое зеркало рутор? Не работает rutor.org и зеркала? Тогда наш торрент специально для вас. Rutor.in неофициальное зеркало rutor. В случае если у Вас заблокирован rutor или вдруг Вы не можете на него зайти, то Вы без труда сможете скачать бесплатно и без рекламы последние новинки кино, игр, сериалов и прочего у нас, на Rutor.in. Не нужно использовать прокси, чтобы зайти на рутор, достаточно воспользоваться нашим ресурсом. Все новые фильмы, игры, сериалы, книги и музыка за 2013 и 2014 годы через торрент бесплатно. Скачивайте фильмы в хорошем качестве, игры для пк, xbox, playstation без регистрации. У нас вы найдете новые Зарубежные сериалы и Русские сериалы 2013, 2014, 2015 годов. Оставайтесь с нами, качайте любимые фильмы, игры, сериалы, книги и музыку.