img image001 image001 image001 image001 image001 image001 image001 image001 image001 image001 image001 image001 image001 image001 image001

Planets Sun Sun Sun
Статистика раздачи
Автор: Nickolas3434 | Размер: 782.38 МБ | Добавлен: 30 июн 2015
Раздают: 95    Качают: 11
Скачать торрент
Скачать торрент
Описание торрента

СообщениеДобавлено: 30 июн 2015 


Загадки тёмной материи
The Mysrery Of Dark Matter
Год выпуска: 2012
Страна: Франция, ARTE France, CNRS Images, CEA, Scientifilms
Жанр: Научно-популярный, документальный, космос
Режиссер: Сесил Дениен / Cacile Denjean
Перевод: Профессиональный двухголосый закадровый

Всех нас учили в школе что вселенная состоит из атомов. На самом деле атомы составляют только 5% материи во вселенной, остальное для нас пока загадка. В космосе есть что-то еще, другая реальность, которую мы только начинаем открывать для себя. Мы знаем, что это не атомы, но не знаем что это.
Почему астрофизики убеждены в существовании этой загадочной невидимой материи? Потому что без темной материи вселенная бы не вращалась - не хватало бы гравитационных сил, чтобы звезды галактики вращались с той скоростью, с какой они вращаются сегодня. В поведении и движении галактик есть некие аномалии, чтобы их понять, ученые предполагают существование невидимой материи, участвующей в движении галактик.
О природе происхождении этого вещества ничего не известно. Из чего состоит эта материя-призрак, как исследователи смогут изучать вещество, которое так много весит в космическом масштабе, но остается невидимым для приборов?
Основы нашей старой доброй физики - гравитация Ньютона, общая теория относительности Эйнштейна не могут объяснить нам, как устроен мир. Темная материя и темная энергия потрясли научный мир и заставили радикально пересмотреть наши взгляды на космос.

Информация о файле:
Продолжительность: 00:54:56
Качество: SATRip
Контейнер: AVI
Видео: 720x400 (1.80:1), 25 fps, XviD ~1853 kbps, 0.26 bit/pixel
Аудио: 48 kHz, MPEG Layer 3, 2 ch, ~128 kbps
Общее
Формат : AVI
Формат/Информация : Audio Video Interleave
Размер файла : 782 Мбайт
Продолжительность : 54 м.
Общий поток : 1991 Кбит/сек
Программа кодирования : VirtualDubMod 1.6.0.0 SURROUND (build 2560/release)
Библиотека кодирования : VirtualDubMod build 2560/release
Видео
Идентификатор : 0
Формат : MPEG-4 Visual
Профиль формата : Advanced Simple@L5
Параметр BVOP формата : 2
Параметр QPel формата : Нет
Параметр GMC формата : Без точки перехода
Параметр матрицы формата : Default (H.263)
Идентификатор кодека : XVID
Идентификатор кодека/Подсказка : XviD
Продолжительность : 54 м.
Битрейт : 1853 Кбит/сек
Ширина : 720 пикселей
Высота : 400 пикселей
Соотношение сторон : 5:4
Соотношение сторон в оригинале : 16:9
Частота кадров : 25,000 кадров/сек
Цветовое пространство : YUV
Субдискретизация насыщенности : 4:2:0
Битовая глубина : 8 бит
Тип развёртки : Прогрессивная
Метод сжатия : С потерями
Бит/(Пиксели*Кадры) : 0.257
Размер потока : 728 Мбайт (93%)
Библиотека кодирования : XviD 64
Аудио
Идентификатор : 1
Формат : MPEG Audio
Версия формата : Version 1
Профиль формата : Layer 3
Режим : Joint stereo
Расширение режима : MS Stereo
Идентификатор кодека : 55
Идентификатор кодека/Подсказка : MP3
Продолжительность : 54 м.
Вид битрейта : Постоянный
Битрейт : 128 Кбит/сек
Каналы : 2 канала
Частота : 48,0 КГц
Метод сжатия : С потерями
Размер потока : 50,3 Мбайт (6%)
Выравнивание : Разделение по промежуткам
Продолжительность промежутка : 40 мс. (1,00 видеокадр)
Время предзагрузки промежутка : 500 мс.
Библиотека кодирования : LAME3.99r
Настройки программы : -m j -V 4 -q 3 -lowpass 17 -b 128






   Похожие торренты   Торрент   Размер 
В этой теме нет новых непрочитанных сообщений. Темные материи. Запутанные, но правдивые / Discovery: Dark Matters. Twisted But True [S01-02] (2011–2012) HDTVRip | P1

355 | 124

11.48 ГБ

В этой теме нет новых непрочитанных сообщений. Пираты темной воды / Pirates Of Dark Water [S01-S03] (1991) TVRip

25 | 7

5.63 ГБ

В этой теме нет новых непрочитанных сообщений. Восход тёмной луны / Оборотень / Dark Moon Rising (2015) DVD-9 | L1

41 | 6

5.2 ГБ

В этой теме нет новых непрочитанных сообщений. Восход тёмной луны / Dark Moon Rising (2015) HDRip от ExKinoRay | L1

753 | 26

1.37 ГБ

В этой теме нет новых непрочитанных сообщений. Восход тёмной луны / Оборотень / Dark Moon Rising (2015) HDRip | L1

300 | 20

1.36 ГБ

В этой теме нет новых непрочитанных сообщений. Пираты темной воды / The Pirates of Dark Water [S01-03] (1991–1992) DVDRip | A

136 | 35

7.14 ГБ

В этой теме нет новых непрочитанных сообщений. BBC: Тайны тёмной энергии / The Mysteries of Dark Energy (2015) HDTVRip от Kaztorrents | D

361 | 4

697.62 МБ




Вы не можете начинать темы
Вы не можете отвечать на сообщения
Вы не можете редактировать свои сообщения
Вы не можете удалять свои сообщения
Вы не можете добавлять вложения

Перейти:  
Для Мосгорсуда, Роскомнадзора и рекламодателей: mosgorsud-torrent[собачка]yandex.ru
 Вход
ppkBB3cker v.2 © 2008-2014 @ PPK
[ Time : 0.036s | 15 Queries | GZIP : Off ]

cron