img image001 image001 image001 image001 image001 image001 image001 image001 image001 image001 image001 image001 image001 image001 image001

Planets Sun Sun Sun
Статистика раздачи
Автор: Nickolas3434 | Размер: 1.97 ГБ | Добавлен: 30 июн 2015
Раздают: 106    Качают: 15
Скачать торрент
Скачать торрент
Описание торрента

СообщениеДобавлено: 30 июн 2015 

Приключение в Большом каньоне: Река в опасности / Grand Canyon Adventure: River at Risk

Русское название: Приключение в Большом каньоне: Река в опасности
Оригинальное название: Grand Canyon Adventure: River at Risk
Год выпуска: 2008
Жанр: документальный, приключения
Выпущено: США
Режиссер: Грег МакГилври
В ролях: Tara Davis , Вэйд Дэвис , Фло Ди Ре , Steve Fisher , Никки Келли , Роберт Кеннеди мл. , Кик Кеннеди , Kristin Kuckelman , Роберт Редфорд , Dale Regan , Tanya Shuman , Шена Ватахомиге
Перевод: Профессиональный (одноголосый)

Сюжет фильма:
Фильм рассказывает об угрозе, нависшей над одним из главных пейзажных символов Америки. Вы увидите великую реку Колорадо, которая напомнит о самой гнетущей современной проблеме окружающей среды - нарастающей нехватке пресной воды во всем мире. Присоединитесь к адвокатам, занимающимся защитой окружающей среды, путешествующим в глубину Большого Каньона вниз по течению реки. У вас участится пульс, когда вы увидите захватывающую поездку по реке через стремительные пороги и поразительные каньоны. Кинематографисты пытаются показать всю красоту реки Колорадо и Большого Каньона и донести осознание того, что и обычные люди могут изменить нашу высыхающую планету к лучшему.

Качество: BDRip 720p
Формат: AVC (библиотека кодирования x.264)
Контейнер (Расширение): MKV
Видео: 1280x720, 5100 Кбит/сек, 23,976 кадр/сек, 0,231 Бит/[Пиксели*Кадры]
Аудио №1: русский / AC3 / 5.1 / 48 kHz / 448 kbps / |Профессиональный (одноголосый), А.Дасевич|
Аудио №2: английский / AC3 / 5.1 / 48 kHz / 640 kbps /
Субтитры: русские,
Продолжительность: 00:44:37
Автор рипа: Сообщество:

Format : Matroska
Format version : Version 2
File size : 1.97 GiB
Duration : 44mn 37s
Overall bit rate : 6 314 Kbps
Movie name : Grand Canyon Adventure: River at Risk.(2008).BDRip.720p.[denis100]
Encoded date : UTC 2015-06-29 08:12:21
Writing application : mkvmerge v5.8.0 ('No Sleep / Pillow') built on Sep 2 2012 15:37:04
Writing library : libebml v1.2.3 + libmatroska v1.3.0
Video
ID : 1
Format : AVC
Format/Info : Advanced Video Codec
Format profile : High@L4.1
Format settings, CABAC : Yes
Format settings, ReFrames : 9 frames
Codec ID : V_MPEG4/ISO/AVC
Duration : 44mn 37s
Bit rate : 5 100 Kbps
Width : 1 280 pixels
Height : 720 pixels
Display aspect ratio : 16:9
Frame rate : 23.976 fps
Color space : YUV
Chroma subsampling : 4:2:0
Bit depth : 8 bits
Scan type : Progressive
Bits/(Pixel*Frame) : 0.231
Stream size : 1.59 GiB (81%)
Title : Grand Canyon Adventure: River at Risk.(2008).BDRip.720p.[denis100]
Writing library : x264 core 146 r2538 121396c
Encoding settings : cabac=1 / ref=9 / deblock=1:-3:-3 / analyse=0x3:0x133 / me=umh / subme=11 / psy=1 / psy_rd=1.00:0.00 / mixed_ref=1 / me_range=32 / chroma_me=1 / trellis=2 / 8x8dct=1 / cqm=0 / deadzone=21,11 / fast_pskip=0 / chroma_qp_offset=-2 / threads=6 / lookahead_threads=1 / sliced_threads=0 / nr=0 / decimate=1 / interlaced=0 / bluray_compat=0 / constrained_intra=0 / bframes=9 / b_pyramid=2 / b_adapt=2 / b_bias=0 / direct=3 / weightb=1 / open_gop=0 / weightp=2 / keyint=240 / keyint_min=23 / scenecut=40 / intra_refresh=0 / rc=crf / mbtree=0 / crf=17.6 / qcomp=0.60 / qpmin=0 / qpmax=69 / qpstep=4 / ip_ratio=1.40 / pb_ratio=1.30 / aq=1:1.00
Language : English
Default : Yes
Forced : No
Audio #1
ID : 2
Format : AC-3
Format/Info : Audio Coding 3
Mode extension : CM (complete main)
Codec ID : A_AC3
Duration : 44mn 37s
Bit rate mode : Constant
Bit rate : 448 Kbps
Channel(s) : 6 channels
Channel positions : Front: L C R, Side: L R, LFE
Sampling rate : 48.0 KHz
Bit depth : 16 bits
Compression mode : Lossy
Stream size : 143 MiB (7%)
Title : Одноголосый закадровый, А.Дасевич
Language : Russian
Default : Yes
Forced : No
Audio #2
ID : 3
Format : AC-3
Format/Info : Audio Coding 3
Mode extension : CM (complete main)
Codec ID : A_AC3
Duration : 44mn 37s
Bit rate mode : Constant
Bit rate : 640 Kbps
Channel(s) : 6 channels
Channel positions : Front: L C R, Side: L R, LFE
Sampling rate : 48.0 KHz
Bit depth : 16 bits
Compression mode : Lossy
Stream size : 204 MiB (10%)
Language : English
Default : No
Forced : No
Text
ID : 4
Format : UTF-8
Codec ID : S_TEXT/UTF8
Codec ID/Info : UTF-8 Plain Text
Language : Russian
Default : No
Forced : No



   Похожие торренты   Торрент   Размер 
В этой теме нет новых непрочитанных сообщений. Приключение в Большом каньоне: Река в опасности / Grand Canyon Adventure: River at Risk (2008) BDRip 720p by msltel

88 | 16

1.63 ГБ

В этой теме нет новых непрочитанных сообщений. Приключение в Большом каньоне: Река в опасности / Grand Canyon Adventure: River at Risk (2008) BDRip-AVC by msltel

30 | 3

1.21 ГБ

В этой теме нет новых непрочитанных сообщений. Приключение в Большом каньоне: Река в опасности / Grand Canyon Adventure: River at Risk (2008) BDRemux

2 | 2

8.6 ГБ

В этой теме нет новых непрочитанных сообщений. Приключение в Большом каньоне: Река в опасности / Grand Canyon Adventure: River at Risk (2008) BDRip 1080p by msltel

85 | 19

3.67 ГБ

В этой теме нет новых непрочитанных сообщений. Приключение в Большом каньоне: Река в опасности / Grand Canyon Adventure: River at Risk (2008) HDRip 720p | 3D-Video / Анаглиф

8 | 3

2.4 ГБ

В этой теме нет новых непрочитанных сообщений. Таинственная река / Mystic River (2003) BDRip 720p от NNNB | D, P, A

121 | 10

5.85 ГБ

В этой теме нет новых непрочитанных сообщений. Таинственная река / Mystic River (2003) BDRip 1080p от NNNB | D, P, A

77 | 10

9.43 ГБ




Вы не можете начинать темы
Вы не можете отвечать на сообщения
Вы не можете редактировать свои сообщения
Вы не можете удалять свои сообщения
Вы не можете добавлять вложения

Перейти:  
Для Мосгорсуда, Роскомнадзора и рекламодателей: mosgorsud-torrent[собачка]yandex.ru
 Вход
ppkBB3cker v.2 © 2008-2014 @ PPK
[ Time : 0.564s | 16 Queries | GZIP : Off ]

Торрент трекер RUTOR.IN, Не можете зайти на rutor.org? Какой новый адрес рутор? Какое зеркало рутор? Не работает rutor.org и зеркала? Тогда наш торрент специально для вас. Rutor.in неофициальное зеркало rutor. В случае если у Вас заблокирован rutor или вдруг Вы не можете на него зайти, то Вы без труда сможете скачать бесплатно и без рекламы последние новинки кино, игр, сериалов и прочего у нас, на Rutor.in. Не нужно использовать прокси, чтобы зайти на рутор, достаточно воспользоваться нашим ресурсом. Все новые фильмы, игры, сериалы, книги и музыка за 2013 и 2014 годы через торрент бесплатно. Скачивайте фильмы в хорошем качестве, игры для пк, xbox, playstation без регистрации. У нас вы найдете новые Зарубежные сериалы и Русские сериалы 2013, 2014, 2015 годов. Оставайтесь с нами, качайте любимые фильмы, игры, сериалы, книги и музыку.
cron