img image001 image001 image001 image001 image001 image001 image001 image001 image001 image001 image001 image001 image001 image001 image001

Planets Sun Sun Sun
Статистика раздачи
Автор: Nickolas3434 | Размер: 20.92 ГБ | Добавлен: 31 июл 2015
Раздают: 21    Качают: 10
Скачать торрент
Скачать торрент
Описание торрента

СообщениеДобавлено: 31 июл 2015 


Информация о фильме
Название: Дикая Канада
Оригинальное название: Terra Mater: Wildes Kanada / Wild Canada
Год выхода: 2014
Жанр: документальный
Режиссер: Джефф Тернер
Рассказчик: Давид Судзуки, Франц Роберт Вагнер
О фильме:
Этот впечатляющий сериал представляет собой удивительный кинематографический портрет обширного региона нашей планеты - мир, который таит в себе невероятное разнообразие природных мест обитания и дикой природы. Красиво и виртуозно снятые четыре эпизода проведут нас через захватывающий истории северной части североамериканского континента. Захватывающая дух увлекательная фотоохота. Снимки сделанные за впечатляющий промежуток времени в последовательном медленном движении, а также реконструкции исторических сцен. Все эти элементы искусно переплетены, в результате чего мы видим - Великий рассказ о жизни. От побережья до побережья, от равнин до лесов, от широких и открытых лугов прерий к холодным и, казалось бы, бесплодным пейзажам Арктики: это всеобъемлющий рассказ о стране, которую мы знаем сегодня, как Канада, - и это также история о том, как эта земля и ее дикая природа была сформирована людьми.
Страна: Австрия
Студия: Terra Mater Factual Studios
Продолжительность: 4 x ~ 00:52:00
Перевод: Профессиональный (одноголосый, закадровый) студия «Омикрон» + Профессиональный (одноголосый, закадровый) студия «Велес»
Релиз:
Файл
Формат: Matroska
Видео: 1920x1080 at 25.000 fps, x264@L4.1, ~11.1 Mbps avg
Аудио#1: Russian: 48 kHz, DTS, 3/2 (L,C,R,l,r) + LFE ch, ~1536.00 kbps avg |Одноголосый закадровый, студия «Омикрон»|
Аудио#2: Russian: 48 kHz, АС3, 2/0 (L,R) ch, ~192.00 kbps avg |Одноголосый закадровый, студия «Велес»|
Аудио#3: English: 48 kHz, DTS, 3/2 (L,C,R,l,r) + LFE ch, ~1536.00 kbps avg
Субтитры: Russian (Full & Force for Veles), Dutch
Спасибо BS666 за сведение русской дорожки с TVRip'а от студии "Велес". Версия показанная по ТВ короче чем на Blu-Ray, в каждой серии присутствуют не переведенные места ~ 9 мин.
[*]Озвучивание осуществлено в рамках сервиса "Озвучивание". Спонсоры: lokolex, Turko, laser10, Воваростов, terminal, rmn84, vitaliysan, goriathid, WHITESNAKEW, snb, RAUL, NABBY, kirill_sky, ash61, Nike997, Bka, mtk99, Plesha, Vitboo.
Эпизод 1: Вечная целина / Episode 1: Das ewige Neuland / Episode 1: The Eternal Frontier
Необычное путешествие, начинающееся со спектакля горбатых китов, питающихся мойвой у полуострова Ньюфаундленд до крупнейших в мире девственных умеренных тропических лесов в Британской Колумбии, которая является домом для редкой разновидности кермодского медведя. Акробатические номера летающих белок и тысячи спаривающихся аспидов лишь некоторые из невероятного множества диких животных.
Эпизод 2: Дикий Запад / Episode 2: Der Wilde Westen / Episode 2: : The Wild West
Путешествие из тайного мира влажный и наиболее биологически разнообразным ландшафтом Канады, умеренного тропического леса на заснеженные вершины Скалистых гор. Истории интимное и эпический: от волков, которые рыбы лосося на захватывающих звуков удар головой мужской большой рог овец, чтобы покрытых льдом медведей гризли, живущих недалеко от Полярного круга. Древние береговые леса скрыть редко рассказывал о человеческих отношениях и дикой природы, которые сосуществовали в течение тысяч лет.
Эпизод 3: В сердце страны / Episode 3: Die endlose Weite / Episode 3: The Heartland
Из степей до огромного бореальных лесов Канады, который простирается почти от побережья до побережья, мы раскрыть огромный пустыни крайностей, которые были на протяжении тысячелетий формы обеих людей и лесных пожаров. Вот Pronghorn антилопы, быстрый копытных животных земли, на земле, все еще преследуют луга, неуловимый росомаха процветает в ледяных отдаленных северных лесов и бобра акции своих уютных домиках с благодарными ондатр.
Эпизод 4: У кромки льда / Episode 4: Der Hohe Norden / Episode 4: Ice Edge
Пейзаж населен дикой природы и людей, которые нашли удивительное разнообразие способов, чтобы выжить. От полярные медвежата делает их первое открытие льда карибу теленка "танцы" в холодном весеннем воздухе, чтобы гаги дайвинг под лед, чтобы найти мидии, мы наблюдаем крайности и чудеса жизни далеко на север.
Общее
Уникальный идентификатор : 220584166005033971528541363615961850932 (0xA5F2F70DF456BE7C9D93D1AB97DA2434)
Полное имя : Wild Canada.S01E01.The Eternal.Frontier.2014.1080p.BluRay.2xRus.Eng.mkv
Формат : Matroska
Версия формата : Version 4 / Version 2
Размер файла : 5,30 Гбайт
Продолжительность : 52 м.
Общий поток : 14,6 Мбит/сек
Название фильма : Create by DeTorquemada for HDCLUB
Дата кодирования : UTC 2015-06-12 15:32:14
Программа кодирования : mkvmerge v7.9.0 ('Birds') 64bit
Библиотека кодирования : libebml v1.3.1 + libmatroska v1.4.2
Видео
Идентификатор : 1
Формат : AVC
Формат/Информация : Advanced Video Codec
Профиль формата : High@L4.1
Параметр CABAC формата : Да
Параметр ReFrames формата : 4 кадра
Идентификатор кодека : V_MPEG4/ISO/AVC
Продолжительность : 52 м.
Битрейт : 11,1 Мбит/сек
Ширина : 1920 пикселей
Высота : 1080 пикселей
Соотношение сторон : 16:9
Режим частоты кадров : Постоянный
Частота кадров : 25,000 кадров/сек
Цветовое пространство : YUV
Субдискретизация насыщенности : 4:2:0
Битовая глубина : 8 бит
Тип развёртки : Прогрессивная
Бит/(Пиксели*Кадры) : 0.213
Размер потока : 4,03 Гбайт (76%)
Заголовок : Эпизод 1: Вечная целина / Episode 1: Das ewige Neuland / Episode 1: The Eternal Frontier (2014) - Release for HDCLUB
Библиотека кодирования : x264 core 146 r2538 121396c
Настройки программы : cabac=1 / ref=4 / deblock=1:-3:-3 / analyse=0x3:0x113 / me=umh / subme=10 / psy=1 / psy_rd=1.00:0.00 / mixed_ref=1 / me_range=48 / chroma_me=1 / trellis=2 / 8x8dct=1 / cqm=0 / deadzone=21,11 / fast_pskip=1 / chroma_qp_offset=-2 / threads=6 / lookahead_threads=1 / sliced_threads=0 / nr=0 / decimate=1 / interlaced=0 / bluray_compat=0 / constrained_intra=0 / bframes=3 / b_pyramid=2 / b_adapt=2 / b_bias=0 / direct=1 / weightb=1 / open_gop=0 / weightp=2 / keyint=250 / keyint_min=25 / scenecut=40 / intra_refresh=0 / rc_lookahead=65 / rc=crf / mbtree=0 / crf=18.0 / qcomp=0.60 / qpmin=0 / qpmax=69 / qpstep=4 / vbv_maxrate=50000 / vbv_bufsize=62500 / crf_max=0.0 / nal_hrd=none / filler=0 / ip_ratio=1.40 / pb_ratio=1.30 / aq=1:0.80
Язык : English
Default : Да
Forced : Нет
Цветовой диапазон : Limited
Коэффициенты матрицы : BT.709
Аудио #1
Идентификатор : 2
Формат : DTS
Формат/Информация : Digital Theater Systems
Режим : 16
Параметр Endianness формата : Big
Идентификатор кодека : A_DTS
Продолжительность : 52 м.
Вид битрейта : Постоянный
Битрейт : 1509 Кбит/сек
Каналы : 6 каналов
Расположение каналов : Front: L C R, Side: L R, LFE
Частота : 48,0 КГц
Битовая глубина : 16 бит
Метод сжатия : С потерями
Размер потока : 563 Мбайт (10%)
Заголовок : 48KHz/16-bit, DTS, 3/2 (L,C,R,l,r) + LFE ch, ~1536 kbps - Профессиональный oдноголосый, студия Омикрон
Язык : Russian
Default : Да
Forced : Нет
Аудио #2
Идентификатор : 3
Формат : DTS
Формат/Информация : Digital Theater Systems
Режим : 16
Параметр Endianness формата : Big
Идентификатор кодека : A_DTS
Продолжительность : 52 м.
Вид битрейта : Постоянный
Битрейт : 1509 Кбит/сек
Каналы : 6 каналов
Расположение каналов : Front: L C R, Side: L R, LFE
Частота : 48,0 КГц
Битовая глубина : 16 бит
Метод сжатия : С потерями
Размер потока : 563 Мбайт (10%)
Заголовок : 48KHz/16-bit, DTS, 3/2 (L,C,R,l,r) + LFE ch, ~1536 kbps
Язык : English
Default : Нет
Forced : Нет
Аудио #3
Идентификатор : 4
Формат : AC-3
Формат/Информация : Audio Coding 3
Расширение режима : CM (complete main)
Параметр Endianness формата : Big
Идентификатор кодека : A_AC3
Продолжительность : 52 м.
Вид битрейта : Постоянный
Битрейт : 192 Кбит/сек
Каналы : 2 канала
Расположение каналов : Front: L R
Частота : 48,0 КГц
Метод сжатия : С потерями
Размер потока : 71,6 Мбайт (1%)
Заголовок : 48KHz/16-bit, AC3, 2.0 (L,R) ch, ~192 kbps - Профессиональный oдноголосый, студия Велес
Язык : Russian
Default : Нет
Forced : Нет
Текст #1
Идентификатор : 5
Формат : UTF-8
Идентификатор кодека : S_TEXT/UTF8
Идентификатор кодека/Информация : UTF-8 Plain Text
Заголовок : Subtitles/Captions (full)
Язык : Russian
Default : Нет
Forced : Нет
Текст #2
Идентификатор : 6
Формат : UTF-8
Идентификатор кодека : S_TEXT/UTF8
Идентификатор кодека/Информация : UTF-8 Plain Text
Заголовок : Subtitles/Captions (force for Veles)
Язык : Russian
Default : Нет
Forced : Нет
Текст #3
Идентификатор : 7
Формат : UTF-8
Идентификатор кодека : S_TEXT/UTF8
Идентификатор кодека/Информация : UTF-8 Plain Text
Заголовок : Subtitles/Captions
Язык : Dutch
Default : Нет
Forced : Нет
Меню
00:00:00.000 : en:00:00:00.000
00:13:47.120 : en:00:13:47.120
00:25:13.800 : en:00:25:13.800
00:38:34.320 : en:00:38:34.320



   Похожие торренты   Торрент   Размер 
В этой теме нет новых непрочитанных сообщений. Дикая Канада / Terra Mater: Wildes Kanada [01-04 из 04] (2014) BDRip 720p от HDClub | P

12 | 34

14.21 ГБ

В этой теме нет новых непрочитанных сообщений. Дикая Канада / Terra Mater: Wildes Kanada [01-04 из 04] (2014) Blu-Ray 1080i от HDClub | P

4 | 5

36.28 ГБ

В этой теме нет новых непрочитанных сообщений. Дикая Канада / Terra Mater: Wildes Kanada [01-04 из 04] (2014) BDRip-AVC | P

64 | 10

2.97 ГБ

В этой теме нет новых непрочитанных сообщений. Дикая Бразилия / Terra Mater: Wildes Brasilien – Geheimnisvolles Naturparadies (2014) BDRip 1080p

18 | 70

22.09 ГБ

В этой теме нет новых непрочитанных сообщений. Дикая природа Германии / Wildes Deutschland (2011/2012) BDRip 1080p от HDCLUB

74 | 54

58.43 ГБ

В этой теме нет новых непрочитанных сообщений. Терра Матер. Амур - Амазонка Азии / Terra Mater. Amur - Asiens Amazonas [01-03 из 03] (2015) BDRip 1080p | P1

36 | 6

17.59 ГБ

В этой теме нет новых непрочитанных сообщений. Дикая природа Скандинавии / Wildes Skandinavien / Wild Scandinavia [01-07 из 07] (2011) BDRip 1080p

3 | 3

31.56 ГБ




Вы не можете начинать темы
Вы не можете отвечать на сообщения
Вы не можете редактировать свои сообщения
Вы не можете удалять свои сообщения
Вы не можете добавлять вложения

Перейти:  
Для Мосгорсуда, Роскомнадзора и рекламодателей: mosgorsud-torrent[собачка]yandex.ru
 Вход
ppkBB3cker v.2 © 2008-2014 @ PPK
[ Time : 0.044s | 15 Queries | GZIP : Off ]

cron