img image001 image001 image001 image001 image001 image001 image001 image001 image001 image001 image001 image001 image001 image001 image001

Planets Sun Sun Sun
Статистика раздачи
Автор: Nickolas3434 | Размер: 1.63 ГБ | Добавлен: 04 авг 2015
Раздают: 88    Качают: 16
Скачать торрент
Скачать торрент
Описание торрента

СообщениеДобавлено: 04 авг 2015 


Название: Приключение в Большом каньоне: Река в опасности
Оригинальное название: Adventure in the Grand Canyon: River at risk
Год выпуска: 2008
Страна: США
Жанр: документальный, приключения
Продолжительность: 00:44:37
Перевод: профессиональный одноголосый
Режиссёр: Грег МакГилливрей
В ролях: Уэйд Дэвис, Никки Келли, Роберт Редфорд, Шена Ватахомиге
Описание: Фильм рассказывает об угрозе, нависшей над одним из главных пейзажных символов Америки. Вы увидите великую реку Колорадо, которая напомнит о самой гнетущей современной проблеме окружающей среды — нарастающей нехватке пресной воды во всем мире. Присоединитесь к адвокатам, занимающимся защитой окружающей среды, путешествующим в глубину Большого каньона вниз по течению реки. У вас участится пульс, когда вы увидите захватывающую поездку по реке через стремительные пороги и поразительные каньоны. Кинематографисты пытаются показать всю красоту реки Колорадо и Большого каньона и донести осознание того, что и обычные люди могут изменить нашу высыхающую планету к лучшему...

Качество: BDRip 720p
Формат: MKV
Видео: MPEG-4 AVC, 4219 Kбит/с, 1280х720, 23,976 кадра/с
Аудио 1: русский, AC3, 448 kbps, 6 ch, 48 kHz [профессиональный одноголосый, Александр Дасевич]
Аудио 2: английский, AC3, 448 kbps, 6 ch, 48 kHz [оригинал]
Субтитры: русские (gHosTer)
Общее
Уникальный идентификатор : 183847778397348546170102771687982530064 (0x8A4FCB4E3B000F1BA666778760D27E10)
Полное имя : D:VideoПриключение в Большом каньоне.2008.BDRip.720p.mkv
Формат : Matroska
Версия формата : Version 4 / Version 2
Размер файла : 1,63 Гбайт
Продолжительность : 44 м.
Общий поток : 5218 Кбит/сек
Название фильма : BDRip -- STarankov
Дата кодирования : UTC 2015-08-04 05:55:49
Программа кодирования : mkvmerge v8.2.0 ('World of Adventure') 64bit
Библиотека кодирования : libebml v1.3.1 + libmatroska v1.4.2
DURATION : 00:44:15.510000000
NUMBER_OF_FRAMES : 183
NUMBER_OF_BYTES : 28851
_STATISTICS_WRITING_APP : mkvmerge v8.2.0 ('World of Adventure') 64bit
_STATISTICS_WRITING_DATE_UTC : 2015-08-04 05:55:49
_STATISTICS_TAGS : BPS DURATION NUMBER_OF_FRAMES NUMBER_OF_BYTES
Видео
Идентификатор : 1
Формат : AVC
Формат/Информация : Advanced Video Codec
Профиль формата : High@L4.1
Параметр CABAC формата : Да
Параметр ReFrames формата : 9 кадров
Идентификатор кодека : V_MPEG4/ISO/AVC
Продолжительность : 44 м.
Битрейт : 4219 Кбит/сек
Ширина : 1280 пикселей
Высота : 720 пикселей
Соотношение сторон : 16:9
Режим частоты кадров : Постоянный
Частота кадров : 23,976 кадра/сек
Цветовое пространство : YUV
Субдискретизация насыщенности : 4:2:0
Битовая глубина : 8 бит
Тип развёртки : Прогрессивная
Бит/(Пиксели*Кадры) : 0.191
Размер потока : 1,31 Гбайт (81%)
Библиотека кодирования : x264 core 146 r2538 121396c
Настройки программы : cabac=1 / ref=9 / deblock=1:-1:-1 / analyse=0x3:0x113 / me=umh / subme=10 / psy=1 / psy_rd=1.00:0.15 / mixed_ref=1 / me_range=32 / chroma_me=1 / trellis=2 / 8x8dct=1 / cqm=0 / deadzone=21,11 / fast_pskip=1 / chroma_qp_offset=-3 / threads=6 / lookahead_threads=1 / sliced_threads=0 / nr=0 / decimate=1 / interlaced=0 / bluray_compat=0 / constrained_intra=0 / bframes=7 / b_pyramid=2 / b_adapt=2 / b_bias=0 / direct=1 / weightb=1 / open_gop=0 / weightp=2 / keyint=230 / keyint_min=23 / scenecut=40 / intra_refresh=0 / rc_lookahead=40 / rc=crf / mbtree=0 / crf=19.0 / qcomp=0.60 / qpmin=0 / qpmax=69 / qpstep=4 / vbv_maxrate=40000 / vbv_bufsize=50000 / crf_max=0.0 / nal_hrd=none / filler=0 / ip_ratio=1.40 / pb_ratio=1.30 / aq=1:1.00
Язык : English
Default : Да
Forced : Нет
DURATION : 00:44:37.342000000
NUMBER_OF_FRAMES : 64192
NUMBER_OF_BYTES : 1445959378
_STATISTICS_WRITING_APP : mkvmerge v8.2.0 ('World of Adventure') 64bit
_STATISTICS_WRITING_DATE_UTC : 2015-08-04 05:55:49
_STATISTICS_TAGS : BPS DURATION NUMBER_OF_FRAMES NUMBER_OF_BYTES
Аудио #1
Идентификатор : 2
Формат : AC-3
Формат/Информация : Audio Coding 3
Расширение режима : CM (complete main)
Параметр Endianness формата : Big
Идентификатор кодека : A_AC3
Продолжительность : 44 м.
Вид битрейта : Постоянный
Битрейт : 448 Кбит/сек
Каналы : 6 каналов
Расположение каналов : Front: L C R, Side: L R, LFE
Частота : 48,0 КГц
Метод сжатия : С потерями
Размер потока : 143 Мбайт (9%)
Заголовок : VO (профессиональный одноголосый, Александр Дасевич)
Язык : Russian
Default : Да
Forced : Нет
Аудио #2
Идентификатор : 3
Формат : AC-3
Формат/Информация : Audio Coding 3
Расширение режима : CM (complete main)
Параметр Endianness формата : Big
Идентификатор кодека : A_AC3
Продолжительность : 44 м.
Вид битрейта : Постоянный
Битрейт : 448 Кбит/сек
Каналы : 6 каналов
Расположение каналов : Front: L C R, Side: L R, LFE
Частота : 48,0 КГц
Метод сжатия : С потерями
Размер потока : 143 Мбайт (9%)
Заголовок : Original
Язык : English
Default : Нет
Forced : Нет
Текст
Идентификатор : 4
Формат : UTF-8
Идентификатор кодека : S_TEXT/UTF8
Идентификатор кодека/Информация : UTF-8 Plain Text
Заголовок : русский (gHosTer)
Язык : Russian
Default : Нет
Forced : Нет




   Похожие торренты   Торрент   Размер 
В этой теме нет новых непрочитанных сообщений. Приключение в Большом каньоне: Река в опасности / Grand Canyon Adventure: River at Risk (2008) BDRip-AVC by msltel

30 | 3

1.21 ГБ

В этой теме нет новых непрочитанных сообщений. Приключение в Большом каньоне: Река в опасности / Grand Canyon Adventure: River at Risk (2008) BDRip 1080p by msltel

85 | 19

3.67 ГБ

В этой теме нет новых непрочитанных сообщений. Приключение в Большом каньоне: Река в опасности / Grand Canyon Adventure: River at Risk (2008) BDRip 720p от NNNB

106 | 15

1.97 ГБ

В этой теме нет новых непрочитанных сообщений. Приключение в Большом каньоне: Река в опасности / Grand Canyon Adventure: River at Risk (2008) BDRemux

2 | 2

8.6 ГБ

В этой теме нет новых непрочитанных сообщений. Приключение в Большом каньоне: Река в опасности / Grand Canyon Adventure: River at Risk (2008) HDRip 720p | 3D-Video / Анаглиф

8 | 3

2.4 ГБ

В этой теме нет новых непрочитанных сообщений. Замерзшая река / Frozen River (2008) BDRip от HQCLUB

6 | 2

1.45 ГБ

В этой теме нет новых непрочитанных сообщений. Замерзшая река / Frozen River (2008) BDRip-AVC от NovaLan

0 | 2

1.78 ГБ




Вы не можете начинать темы
Вы не можете отвечать на сообщения
Вы не можете редактировать свои сообщения
Вы не можете удалять свои сообщения
Вы не можете добавлять вложения

Перейти:  
Для Мосгорсуда, Роскомнадзора и рекламодателей: mosgorsud-torrent[собачка]yandex.ru
 Вход
ppkBB3cker v.2 © 2008-2014 @ PPK
[ Time : 0.028s | 14 Queries | GZIP : Off ]

Торрент трекер RUTOR.IN, Не можете зайти на rutor.org? Какой новый адрес рутор? Какое зеркало рутор? Не работает rutor.org и зеркала? Тогда наш торрент специально для вас. Rutor.in неофициальное зеркало rutor. В случае если у Вас заблокирован rutor или вдруг Вы не можете на него зайти, то Вы без труда сможете скачать бесплатно и без рекламы последние новинки кино, игр, сериалов и прочего у нас, на Rutor.in. Не нужно использовать прокси, чтобы зайти на рутор, достаточно воспользоваться нашим ресурсом. Все новые фильмы, игры, сериалы, книги и музыка за 2013 и 2014 годы через торрент бесплатно. Скачивайте фильмы в хорошем качестве, игры для пк, xbox, playstation без регистрации. У нас вы найдете новые Зарубежные сериалы и Русские сериалы 2013, 2014, 2015 годов. Оставайтесь с нами, качайте любимые фильмы, игры, сериалы, книги и музыку.