img image001 image001 image001 image001 image001 image001 image001 image001 image001 image001 image001 image001 image001 image001 image001

Planets Sun Sun Sun
Статистика раздачи
Автор: Nickolas3434 | Размер: 1.67 ГБ | Добавлен: 05 авг 2015
Раздают: 28    Качают: 6
Скачать торрент
Скачать торрент
Описание торрента

СообщениеДобавлено: 05 авг 2015 

Амазония
| Amazonia |

Информация о фильме
Название: Амазония: Инструкция по выживанию
Оригинальное название: Amazonia
Год выхода: 2013
Жанр: документальный, приключения, семейный
Режиссер: Тьерри Рагоберт
О фильме:
Невероятно увлекательное путешествие по диким тропическим джунглям Амазонии вместе с капуцином Саи. Выжив в авиакатастрофе, маленькая обезьянка попадает в необычную среду и теперь должна сама заботиться о себе. Ведь новый мир дикой природы полон опасностей и ловушек. Что ее ждет и как она приспособится к жизни в дикой Амазонии?

Страна: Франция, Бразилия
Студия: Biloba, Gullane Filmes, ANCINE/Ministério da Cultura, Fundo Setorial do Audiovisual
Продолжительность: 01:22:32
Перевод: Дублированный
Файл
Кодек: h.264
Качество: BDRip-AVC
Видео: 2131 Кбит/с, 1024х552, 23.976 кадр/с
Звук: Русский (AC3, 6 ch, 384 Кбит/с), звуки природы (AC3, 6 ch, 384 Кбит/с)
Полное имя : Amazonia.2013.x264.BDRip-AVC.mkv
Формат : Matroska
Версия формата : Version 2
Размер файла : 1,67 Гбайт
Продолжительность : 1 ч. 23 м.
Общий поток : 2879 Кбит/сек
Название фильма : Амазония | Amazonia [2013] -= BDRip (AVC) =-
Дата кодирования : UTC 2015-07-16 11:38:38
Программа кодирования : mkvmerge v6.6.0 ('The Edge Of The In Between') built on Dec 1 2013 17:55:00
Библиотека кодирования : libebml v1.3.0 + libmatroska v1.4.1
Видео
Идентификатор : 1
Формат : AVC
Формат/Информация : Advanced Video Codec
Профиль формата : High@L4.1
Параметр CABAC формата : Да
Параметр ReFrames формата : 8 кадров
Идентификатор кодека : V_MPEG4/ISO/AVC
Продолжительность : 1 ч. 23 м.
Битрейт : 2131 Кбит/сек
Ширина : 1024 пикселя
Высота : 552 пикселя
Соотношение сторон : 1,85:1
Режим частоты кадров : Постоянный
Частота кадров : 23,976 кадра/сек
Цветовое пространство : YUV
Субдискретизация насыщенности : 4:2:0
Битовая глубина : 8 бит
Тип развёртки : Прогрессивная
Бит/(Пиксели*Кадры) : 0.157
Размер потока : 1,19 Гбайт (71%)
Библиотека кодирования : x264 core 125 r2200 999b753
Настройки программы : cabac=1 / ref=8 / deblock=1:-2:-2 / analyse=0x3:0x113 / me=umh / subme=9 / psy=1 / psy_rd=1.00:0.00 / mixed_ref=1 / me_range=32 / chroma_me=1 / trellis=2 / 8x8dct=1 / cqm=0 / deadzone=21,11 / fast_pskip=0 / chroma_qp_offset=-2 / threads=6 / lookahead_threads=1 / sliced_threads=0 / nr=0 / decimate=0 / interlaced=0 / bluray_compat=0 / constrained_intra=0 / bframes=8 / b_pyramid=2 / b_adapt=2 / b_bias=0 / direct=3 / weightb=1 / open_gop=0 / weightp=2 / keyint=240 / keyint_min=23 / scenecut=40 / intra_refresh=0 / rc=2pass / mbtree=0 / bitrate=2131 / ratetol=1.0 / qcomp=0.60 / qpmin=0 / qpmax=69 / qpstep=4 / cplxblur=20.0 / qblur=0.5 / ip_ratio=1.40 / pb_ratio=1.30 / aq=1:1.10
Язык : English
Default : Нет
Forced : Нет
Аудио #1
Идентификатор : 2
Формат : AC-3
Формат/Информация : Audio Coding 3
Расширение режима : CM (complete main)
Параметр Endianness формата : Big
Идентификатор кодека : A_AC3
Продолжительность : 1 ч. 23 м.
Вид битрейта : Постоянный
Битрейт : 384 Кбит/сек
Каналы : 6 каналов
Расположение каналов : Front: L C R, Side: L R, LFE
Частота : 48,0 КГц
Битовая глубина : 16 бит
Метод сжатия : С потерями
Размер потока : 228 Мбайт (13%)
Заголовок : Дублированный
Язык : Russian
Default : Да
Forced : Да
Аудио #2
Идентификатор : 3
Формат : AC-3
Формат/Информация : Audio Coding 3
Расширение режима : CM (complete main)
Параметр Endianness формата : Big
Идентификатор кодека : A_AC3
Продолжительность : 1 ч. 23 м.
Вид битрейта : Постоянный
Битрейт : 384 Кбит/сек
Каналы : 6 каналов
Расположение каналов : Front: L C R, Side: L R, LFE
Частота : 48,0 КГц
Битовая глубина : 16 бит
Метод сжатия : С потерями
Размер потока : 228 Мбайт (13%)
Язык : English
Default : Нет
Forced : Нет
Текст
Идентификатор : 4
Формат : UTF-8
Идентификатор кодека : S_TEXT/UTF8
Идентификатор кодека/Информация : UTF-8 Plain Text
Язык : Russian
Default : Нет
Forced : Нет
Меню
00:00:00.000 : en:(01)00:00:00:000
00:04:59.966 : en:(02)00:04:59:966
00:13:34.104 : en:(03)00:13:34:104
00:24:07.154 : en:(04)00:24:07:154
00:37:18.694 : en:(05)00:37:18:694
00:46:02.676 : en:(06)00:46:02:676
00:56:36.601 : en:(07)00:56:36:601
01:07:45.770 : en:(08)01:07:45:770
01:18:01.843 : en:(09)01:18:01:843
01:22:33.907 : en:(10)01:22:33:907





   Похожие торренты   Торрент   Размер 
В этой теме нет новых непрочитанных сообщений. Амазония: Инструкция по выживанию / Amazonia (2013) BDRip 1080p от NNNB

111 | 17

4.97 ГБ

В этой теме нет новых непрочитанных сообщений. Амазония: Инструкция по выживанию / Amazonia (2013) BDRip 720p от NNNB

36 | 9

5.19 ГБ

В этой теме нет новых непрочитанных сообщений. Амазония: Инструкция по выживанию / Amazonia (2013) BDRemux 1080p

5 | 2

16.08 ГБ

В этой теме нет новых непрочитанных сообщений. Амазония: Инструкция по выживанию / Amazonia (2013) BDRemux 2D/3D 1080p от Ash61 | 3D-Video | L1

11 | 6

30.21 ГБ

В этой теме нет новых непрочитанных сообщений. Амазония / Amazonia (2013) BDRip-AVC

260 | 12

1.45 ГБ

В этой теме нет новых непрочитанных сообщений. Амазония / Amazonia (2013) BDRip 720p

288 | 22

2.74 ГБ

В этой теме нет новых непрочитанных сообщений. Амазония / Amazonia (2013) BDRip от Rulya74

68 | 8

1.36 ГБ




Вы не можете начинать темы
Вы не можете отвечать на сообщения
Вы не можете редактировать свои сообщения
Вы не можете удалять свои сообщения
Вы не можете добавлять вложения

Перейти:  
 Вход
ppkBB3cker v.2 © 2008-2014 @ PPK
[ Time : 0.040s | 17 Queries | GZIP : Off ]

cron