img image001 image001 image001 image001 image001 image001 image001 image001 image001 image001 image001 image001 image001 image001 image001

Planets Sun Sun Sun
Статистика раздачи
Автор: Nickolas3434 | Размер: 5.57 ГБ | Добавлен: 07 авг 2015
Раздают: 141    Качают: 49
Скачать торрент
Скачать торрент
Описание торрента

СообщениеДобавлено: 07 авг 2015 


Название: Очарование природы. Трилогия
Оригинальное название: Fascinating Nature. Trilogie
Год выпуска: 1996-2004
Страна: Германия
Жанр: документальный
Продолжительность: 03:53:59
Перевод: нет
Режиссёр: Гогол Лобмайр
Описание: Жизнь в своем бесконечном проявлении. Удивительные скалистые башни. Мягкие дюны песка. Переливающиеся серебром айсберги. Дух захватывает от этой красоты. Более того, мы можем прочувствовать настоение природы. Ни один голос не прерывает это колдовство. Только музыка и звуки воды, ветра, животных...
Качество: BDRip AVC
Формат: MKV
Видео: MPEG-4 AVC, ~ 2700 Кбит/с, 1024х576, 23,976 кадра/с
Аудио: AC3, 640 kbps, 6 ch, 48 kHz [музыка]
(1996) Fascinating Nature / Очарование природы [01:29:03]
Теплые лучи Солнца пронизывают голубую планету, наполняя ее светом и красками. Оттенки ослепительной белизны снегов, яркой зелени растений, теплой желтизны и багрянца земли, безграничное красочное разнообразие цветов и зверей, глубокая синева морей и небес - все это превращается наш мир в бесконечную игру красок, теней и света...

(1999) Fascinating Nature 2 - Colours of Earth / Очарование природы 2: Краски земли [00:53:45]
Такого Вы не видели никогда и, наверное, даже не догадываетесь, что на земле существуют такие места по красоте и экзотичности несравнимые ни с чем! Это фильм, который поможет Вам получить удовольствие от общения с природой!..

(2004) Fascinating Nature 3 - Seven Seasons / Очарование природы 3: Семь сезонов [01:28:11]
Семь сезонов, третья часть трилогии Гогол Лобмайра "Очарование природы», поражает сложный обмен поэтическими образами и захватывающими дух природными чудесами. Лобмайр описывает жизненные циклы и сезонов природы, весна, лето, сухой сезон, бури, дождь, осенью и зимой.Фильм переносит зрителя близко к наиболее красивых мест на Земле, и показывает, что каждый сезон имеет свои чудо.Фильм, который апеллирует к чувствам, изюминкой фильмов о природе, с великолепными фотографиями изумление...

Общее
Уникальный идентификатор : 221366003565798293071827905744601817259 (0xA6898A9F5444BD969A88F531465B20AB)
Полное имя : D:VideoОчарование природы.Трилогия.1996-2004.BDRip.AVCКраски Земли.1999.BDRip.AVC.mkv
Формат : Matroska
Версия формата : Version 4 / Version 2
Размер файла : 1,22 Гбайт
Продолжительность : 53 м.
Общий поток : 3246 Кбит/сек
Название фильма : BDRip -- STarankov
Дата кодирования : UTC 2015-08-06 07:26:15
Программа кодирования : mkvmerge v8.2.0 ('World of Adventure') 64bit
Библиотека кодирования : libebml v1.3.1 + libmatroska v1.4.2
DURATION : 00:53:44.736000000
NUMBER_OF_FRAMES : 100773
NUMBER_OF_BYTES : 257978880
_STATISTICS_WRITING_APP : mkvmerge v8.2.0 ('World of Adventure') 64bit
_STATISTICS_WRITING_DATE_UTC : 2015-08-06 07:26:15
_STATISTICS_TAGS : BPS DURATION NUMBER_OF_FRAMES NUMBER_OF_BYTES
Видео
Идентификатор : 1
Формат : AVC
Формат/Информация : Advanced Video Codec
Профиль формата : High@L4.1
Параметр CABAC формата : Да
Параметр ReFrames формата : 9 кадров
Идентификатор кодека : V_MPEG4/ISO/AVC
Продолжительность : 53 м.
Битрейт : 2541 Кбит/сек
Ширина : 1024 пикселя
Высота : 576 пикселей
Соотношение сторон : 16:9
Режим частоты кадров : Постоянный
Частота кадров : 24,000 кадра/сек
Цветовое пространство : YUV
Субдискретизация насыщенности : 4:2:0
Битовая глубина : 8 бит
Тип развёртки : Прогрессивная
Бит/(Пиксели*Кадры) : 0.180
Размер потока : 977 Мбайт (78%)
Библиотека кодирования : x264 core 146 r2538 121396c
Настройки программы : cabac=1 / ref=9 / deblock=1:-1:-1 / analyse=0x3:0x113 / me=umh / subme=10 / psy=1 / psy_rd=1.00:0.15 / mixed_ref=1 / me_range=32 / chroma_me=1 / trellis=2 / 8x8dct=1 / cqm=0 / deadzone=21,11 / fast_pskip=1 / chroma_qp_offset=-3 / threads=6 / lookahead_threads=1 / sliced_threads=0 / nr=0 / decimate=1 / interlaced=0 / bluray_compat=0 / constrained_intra=0 / bframes=12 / b_pyramid=2 / b_adapt=2 / b_bias=0 / direct=1 / weightb=1 / open_gop=0 / weightp=2 / keyint=230 / keyint_min=23 / scenecut=40 / intra_refresh=0 / rc_lookahead=40 / rc=crf / mbtree=0 / crf=18.6 / qcomp=0.60 / qpmin=0 / qpmax=69 / qpstep=4 / vbv_maxrate=40000 / vbv_bufsize=50000 / crf_max=0.0 / nal_hrd=none / filler=0 / ip_ratio=1.40 / pb_ratio=1.30 / aq=1:1.00
Язык : English
Default : Да
Forced : Нет
DURATION : 00:53:44.750000000
NUMBER_OF_FRAMES : 77394
NUMBER_OF_BYTES : 1049704661
_STATISTICS_WRITING_APP : mkvmerge v8.2.0 ('World of Adventure') 64bit
_STATISTICS_WRITING_DATE_UTC : 2015-08-06 07:26:15
_STATISTICS_TAGS : BPS DURATION NUMBER_OF_FRAMES NUMBER_OF_BYTES
Аудио
Идентификатор : 2
Формат : AC-3
Формат/Информация : Audio Coding 3
Расширение режима : CM (complete main)
Параметр Endianness формата : Big
Идентификатор кодека : A_AC3
Продолжительность : 53 м.
Вид битрейта : Постоянный
Битрейт : 640 Кбит/сек
Каналы : 6 каналов
Расположение каналов : Front: L C R, Side: L R, LFE
Частота : 48,0 КГц
Метод сжатия : С потерями
Размер потока : 246 Мбайт (20%)
Заголовок : музыка
Default : Да
Forced : Нет
Общее
Уникальный идентификатор : 231622305738974923802321110163509653807 (0xAE40D55C64DDEF5690CF44BBBDEAB12F)
Полное имя : D:VideoОчарование природы.Трилогия.1996-2004.BDRip.AVCОчарование природы.1996.BDRip.AVC.mkv
Формат : Matroska
Версия формата : Version 4 / Version 2
Размер файла : 2,06 Гбайт
Продолжительность : 1 ч. 29 м.
Общий поток : 3310 Кбит/сек
Название фильма : BDRip -- STarankov
Дата кодирования : UTC 2015-08-05 02:45:20
Программа кодирования : mkvmerge v8.2.0 ('World of Adventure') 64bit
Библиотека кодирования : libebml v1.3.1 + libmatroska v1.4.2
DURATION : 01:29:03.296000000
NUMBER_OF_FRAMES : 166978
NUMBER_OF_BYTES : 427463680
_STATISTICS_WRITING_APP : mkvmerge v8.2.0 ('World of Adventure') 64bit
_STATISTICS_WRITING_DATE_UTC : 2015-08-05 02:45:20
_STATISTICS_TAGS : BPS DURATION NUMBER_OF_FRAMES NUMBER_OF_BYTES
Видео
Идентификатор : 1
Формат : AVC
Формат/Информация : Advanced Video Codec
Профиль формата : High@L4.1
Параметр CABAC формата : Да
Параметр ReFrames формата : 9 кадров
Идентификатор кодека : V_MPEG4/ISO/AVC
Продолжительность : 1 ч. 29 м.
Битрейт : 2604 Кбит/сек
Ширина : 1024 пикселя
Высота : 576 пикселей
Соотношение сторон : 16:9
Режим частоты кадров : Постоянный
Частота кадров : 24,000 кадра/сек
Цветовое пространство : YUV
Субдискретизация насыщенности : 4:2:0
Битовая глубина : 8 бит
Тип развёртки : Прогрессивная
Бит/(Пиксели*Кадры) : 0.184
Размер потока : 1,62 Гбайт (79%)
Библиотека кодирования : x264 core 146 r2538 121396c
Настройки программы : cabac=1 / ref=9 / deblock=1:-1:-1 / analyse=0x3:0x113 / me=umh / subme=10 / psy=1 / psy_rd=1.00:0.15 / mixed_ref=1 / me_range=32 / chroma_me=1 / trellis=2 / 8x8dct=1 / cqm=0 / deadzone=21,11 / fast_pskip=1 / chroma_qp_offset=-3 / threads=6 / lookahead_threads=1 / sliced_threads=0 / nr=0 / decimate=1 / interlaced=0 / bluray_compat=0 / constrained_intra=0 / bframes=12 / b_pyramid=2 / b_adapt=2 / b_bias=0 / direct=1 / weightb=1 / open_gop=0 / weightp=2 / keyint=230 / keyint_min=23 / scenecut=40 / intra_refresh=0 / rc_lookahead=40 / rc=crf / mbtree=0 / crf=19.8 / qcomp=0.60 / qpmin=0 / qpmax=69 / qpstep=4 / vbv_maxrate=40000 / vbv_bufsize=50000 / crf_max=0.0 / nal_hrd=none / filler=0 / ip_ratio=1.40 / pb_ratio=1.30 / aq=1:1.00
Язык : English
Default : Да
Forced : Нет
DURATION : 01:29:03.292000000
NUMBER_OF_FRAMES : 128239
NUMBER_OF_BYTES : 1782338659
_STATISTICS_WRITING_APP : mkvmerge v8.2.0 ('World of Adventure') 64bit
_STATISTICS_WRITING_DATE_UTC : 2015-08-05 02:45:20
_STATISTICS_TAGS : BPS DURATION NUMBER_OF_FRAMES NUMBER_OF_BYTES
Аудио
Идентификатор : 2
Формат : AC-3
Формат/Информация : Audio Coding 3
Расширение режима : CM (complete main)
Параметр Endianness формата : Big
Идентификатор кодека : A_AC3
Продолжительность : 1 ч. 29 м.
Вид битрейта : Постоянный
Битрейт : 640 Кбит/сек
Каналы : 6 каналов
Расположение каналов : Front: L C R, Side: L R, LFE
Частота : 48,0 КГц
Метод сжатия : С потерями
Размер потока : 408 Мбайт (19%)
Заголовок : музыка
Default : Да
Forced : Нет
Общее
Уникальный идентификатор : 203116806540209832889952361012581145536 (0x98CEDFBDF77196619663F076B0189BC0)
Полное имя : D:VideoОчарование природы.Трилогия.1996-2004.BDRip.AVCСемь сезонов.2004.BDRip.AVC.mkv
Формат : Matroska
Версия формата : Version 4 / Version 2
Размер файла : 2,29 Гбайт
Продолжительность : 1 ч. 28 м.
Общий поток : 3715 Кбит/сек
Название фильма : BDRip -- STarankov
Дата кодирования : UTC 2015-08-06 11:20:35
Программа кодирования : mkvmerge v8.2.0 ('World of Adventure') 64bit
Библиотека кодирования : libebml v1.3.1 + libmatroska v1.4.2
DURATION : 01:12:43.791000000
NUMBER_OF_FRAMES : 53
NUMBER_OF_BYTES : 1113
_STATISTICS_WRITING_APP : mkvmerge v8.2.0 ('World of Adventure') 64bit
_STATISTICS_WRITING_DATE_UTC : 2015-08-06 11:20:35
_STATISTICS_TAGS : BPS DURATION NUMBER_OF_FRAMES NUMBER_OF_BYTES
Видео
Идентификатор : 1
Формат : AVC
Формат/Информация : Advanced Video Codec
Профиль формата : High@L4.1
Параметр CABAC формата : Да
Параметр ReFrames формата : 9 кадров
Идентификатор кодека : V_MPEG4/ISO/AVC
Продолжительность : 1 ч. 28 м.
Битрейт : 3001 Кбит/сек
Ширина : 1024 пикселя
Высота : 576 пикселей
Соотношение сторон : 16:9
Режим частоты кадров : Постоянный
Частота кадров : 24,000 кадра/сек
Цветовое пространство : YUV
Субдискретизация насыщенности : 4:2:0
Битовая глубина : 8 бит
Тип развёртки : Прогрессивная
Бит/(Пиксели*Кадры) : 0.212
Размер потока : 1,85 Гбайт (81%)
Библиотека кодирования : x264 core 146 r2538 121396c
Настройки программы : cabac=1 / ref=9 / deblock=1:-1:-1 / analyse=0x3:0x113 / me=umh / subme=10 / psy=1 / psy_rd=1.00:0.15 / mixed_ref=1 / me_range=32 / chroma_me=1 / trellis=2 / 8x8dct=1 / cqm=0 / deadzone=21,11 / fast_pskip=1 / chroma_qp_offset=-3 / threads=6 / lookahead_threads=1 / sliced_threads=0 / nr=0 / decimate=1 / interlaced=0 / bluray_compat=0 / constrained_intra=0 / bframes=12 / b_pyramid=2 / b_adapt=2 / b_bias=0 / direct=1 / weightb=1 / open_gop=0 / weightp=2 / keyint=230 / keyint_min=23 / scenecut=40 / intra_refresh=0 / rc_lookahead=40 / rc=crf / mbtree=0 / crf=17.6 / qcomp=0.60 / qpmin=0 / qpmax=69 / qpstep=4 / vbv_maxrate=40000 / vbv_bufsize=50000 / crf_max=0.0 / nal_hrd=none / filler=0 / ip_ratio=1.40 / pb_ratio=1.30 / aq=1:1.00
Язык : English
Default : Да
Forced : Нет
DURATION : 01:28:10.542000000
NUMBER_OF_FRAMES : 126973
NUMBER_OF_BYTES : 2032487248
_STATISTICS_WRITING_APP : mkvmerge v8.2.0 ('World of Adventure') 64bit
_STATISTICS_WRITING_DATE_UTC : 2015-08-06 11:20:35
_STATISTICS_TAGS : BPS DURATION NUMBER_OF_FRAMES NUMBER_OF_BYTES
Аудио
Идентификатор : 2
Формат : AC-3
Формат/Информация : Audio Coding 3
Расширение режима : CM (complete main)
Параметр Endianness формата : Big
Идентификатор кодека : A_AC3
Продолжительность : 1 ч. 28 м.
Вид битрейта : Постоянный
Битрейт : 640 Кбит/сек
Каналы : 6 каналов
Расположение каналов : Front: L C R, Side: L R, LFE
Частота : 48,0 КГц
Метод сжатия : С потерями
Размер потока : 404 Мбайт (17%)
Заголовок : ьузыка
Default : Да
Forced : Нет
Текст
Идентификатор : 3
Формат : UTF-8
Идентификатор кодека : S_TEXT/UTF8
Идентификатор кодека/Информация : UTF-8 Plain Text
Заголовок : места
Язык : English
Default : Да
Forced : Да





   Похожие торренты   Торрент   Размер 
В этой теме нет новых непрочитанных сообщений. Очарование природы. Трилогия / Fascinating Nature. Trilogie (1996-2004) BDRip 720p by msltel

55 | 41

8.22 ГБ

В этой теме нет новых непрочитанных сообщений. Очарование природы. Трилогия / Fascinating Nature. Trilogie (1996-2004) BDRip 1080p by msltel

72 | 17

18.95 ГБ

В этой теме нет новых непрочитанных сообщений. Стихийные бедствия: силы природы / Natural Disasters: Forces of Nature (2004) BDRip-AVC от Тorrent-Хzona

0 | 3

644.9 МБ

В этой теме нет новых непрочитанных сообщений. Мир живой природы VI / Чудеса природы / NHK. Nature Wonder Land VI [01-12 из 13] (2012) HDTVRip от GeneralFilm

96 | 28

3.52 ГБ

В этой теме нет новых непрочитанных сообщений. Мир живой природы VI / Чудеса природы / NHK. Nature Wonder Land VI [01-13 из 13] (2012) HDTVRip от GeneralFilm

24 | 9

3.81 ГБ

В этой теме нет новых непрочитанных сообщений. Величайшие явления природы / BBC: Nature's Great Events (2009) BDRip от HELLYWOOD

75 | 22

6.53 ГБ

В этой теме нет новых непрочитанных сообщений. Лоракс: Силы природы + Повозка Хоу + Серенада / Lorax: Forces of Nature + Wagon Ho + Serenade (2012) BDRip

11 | 3

183.96 МБ




Вы не можете начинать темы
Вы не можете отвечать на сообщения
Вы не можете редактировать свои сообщения
Вы не можете удалять свои сообщения
Вы не можете добавлять вложения

Перейти:  
Для Мосгорсуда, Роскомнадзора и рекламодателей: mosgorsud-torrent[собачка]yandex.ru
 Вход
ppkBB3cker v.2 © 2008-2014 @ PPK
[ Time : 0.019s | 14 Queries | GZIP : Off ]

Торрент трекер RUTOR.IN, Не можете зайти на rutor.org? Какой новый адрес рутор? Какое зеркало рутор? Не работает rutor.org и зеркала? Тогда наш торрент специально для вас. Rutor.in неофициальное зеркало rutor. В случае если у Вас заблокирован rutor или вдруг Вы не можете на него зайти, то Вы без труда сможете скачать бесплатно и без рекламы последние новинки кино, игр, сериалов и прочего у нас, на Rutor.in. Не нужно использовать прокси, чтобы зайти на рутор, достаточно воспользоваться нашим ресурсом. Все новые фильмы, игры, сериалы, книги и музыка за 2013 и 2014 годы через торрент бесплатно. Скачивайте фильмы в хорошем качестве, игры для пк, xbox, playstation без регистрации. У нас вы найдете новые Зарубежные сериалы и Русские сериалы 2013, 2014, 2015 годов. Оставайтесь с нами, качайте любимые фильмы, игры, сериалы, книги и музыку.