img image001 image001 image001 image001 image001 image001 image001 image001 image001 image001 image001 image001 image001 image001 image001

Planets Sun Sun Sun
Статистика раздачи
Автор: Nickolas3434 | Размер: 18.95 ГБ | Добавлен: 12 авг 2015
Раздают: 72    Качают: 17
Скачать торрент
Скачать торрент
Описание торрента

СообщениеДобавлено: 12 авг 2015 


Название: Очарование природы. Трилогия
Оригинальное название: Fascinating Nature. Trilogie
Год выпуска: 1996-2004
Страна: Германия
Жанр: документальный
Продолжительность: 03:53:59
Перевод: нет
Режиссёр: Гогол Лобмайр
Описание: Жизнь в своём бесконечном проявлении. Удивительные скалистые башни. Мягкие дюны песка. Переливающиеся серебром айсберги. Дух захватывает от этой красоты. Более того, мы можем прочувствовать настроение природы. Ни один голос не прерывает это колдовство. Только музыка и звуки воды, ветра, животных...
Качество: BDRip 1080p
Формат: MKV
Видео: MPEG-4 AVC, ~ 10.1 Mбит/с, 1920х1080, 24 кадра/с
Аудио: DTS, 1509 kbps, 6 ch, 48 kHz [музыка]
(1996) Fascinating Nature / Очарование природы [01:29:03]

Тёплые лучи Солнца пронизывают голубую планету, наполняя её светом и красками. Оттенки ослепительной белизны снегов, яркой зелени растений, тёплой желтизны и багрянца земли, безграничное красочное разнообразие цветов и зверей, глубокая синева морей и небес - всё это превращает наш мир в бесконечную игру красок, теней и света...
(1999) Fascinating Nature 2 - Colours of Earth / Очарование природы 2: Краски земли [00:53:45]

Такого вы не видели никогда и, наверное, даже не догадываетесь, что на Земле существуют такие места, по красоте и экзотичности не сравнимые ни с чем! Этот фильм поможет вам получить удовольствие от общения с природой!..
(2004) Fascinating Nature 3 - Seven Seasons / Очарование природы 3: Семь сезонов [01:28:11]

Семь сезонов - третья часть трилогии Гогол Лобмайра "Очарование природы" - поражает сложным обменом поэтическими образами и захватывающими дух природными чудесами. Лобмайр описывает жизненные циклы и сезоны природы: весна, лето, сухой сезон, бури, дождь, осень и зиму. Фильм переносит зрителя к наиболее красивым местам на Земле и показывает, что каждый сезон имеет своё чудо...

Общее
Уникальный идентификатор : 212828219373017317389219082713485624212 (0xA01D395CA8A69DBEB9CC4D15B1D14394)
Полное имя : D:VideoОчарование природы.Трилогия.1996-2004.BDRip.1080pКраски Земли.1999.BDRip.1080p.mkv
Формат : Matroska
Версия формата : Version 4 / Version 2
Размер файла : 4,75 Гбайт
Продолжительность : 53 м.
Общий поток : 12,7 Мбит/сек
Название фильма : BDRip -- STarankov
Дата кодирования : UTC 2015-08-08 05:02:43
Программа кодирования : mkvmerge v8.2.0 ('World of Adventure') 64bit
Библиотека кодирования : libebml v1.3.1 + libmatroska v1.4.2
DURATION : 00:53:44.736000000
NUMBER_OF_FRAMES : 302319
NUMBER_OF_BYTES : 608265896
_STATISTICS_WRITING_APP : mkvmerge v8.2.0 ('World of Adventure') 64bit
_STATISTICS_WRITING_DATE_UTC : 2015-08-08 05:02:43
_STATISTICS_TAGS : BPS DURATION NUMBER_OF_FRAMES NUMBER_OF_BYTES
Видео
Идентификатор : 1
Формат : AVC
Формат/Информация : Advanced Video Codec
Профиль формата : High@L4.1
Параметр CABAC формата : Да
Параметр ReFrames формата : 4 кадра
Идентификатор кодека : V_MPEG4/ISO/AVC
Продолжительность : 53 м.
Битрейт : 10,9 Мбит/сек
Ширина : 1920 пикселей
Высота : 1080 пикселей
Соотношение сторон : 16:9
Режим частоты кадров : Постоянный
Частота кадров : 24,000 кадра/сек
Цветовое пространство : YUV
Субдискретизация насыщенности : 4:2:0
Битовая глубина : 8 бит
Тип развёртки : Прогрессивная
Бит/(Пиксели*Кадры) : 0.219
Размер потока : 4,09 Гбайт (86%)
Библиотека кодирования : x264 core 146 r2538 121396c
Настройки программы : cabac=1 / ref=4 / deblock=1:-1:-1 / analyse=0x3:0x113 / me=umh / subme=10 / psy=1 / psy_rd=1.00:0.15 / mixed_ref=1 / me_range=32 / chroma_me=1 / trellis=2 / 8x8dct=1 / cqm=0 / deadzone=21,11 / fast_pskip=1 / chroma_qp_offset=-3 / threads=6 / lookahead_threads=1 / sliced_threads=0 / nr=0 / decimate=1 / interlaced=0 / bluray_compat=0 / constrained_intra=0 / bframes=8 / b_pyramid=2 / b_adapt=2 / b_bias=0 / direct=1 / weightb=1 / open_gop=0 / weightp=2 / keyint=230 / keyint_min=23 / scenecut=40 / intra_refresh=0 / rc_lookahead=40 / rc=crf / mbtree=0 / crf=18.5 / qcomp=0.60 / qpmin=0 / qpmax=69 / qpstep=4 / vbv_maxrate=40000 / vbv_bufsize=50000 / crf_max=0.0 / nal_hrd=none / filler=0 / ip_ratio=1.40 / pb_ratio=1.30 / aq=1:1.00
Язык : German
Default : Да
Forced : Нет
DURATION : 00:53:44.750000000
NUMBER_OF_FRAMES : 77394
NUMBER_OF_BYTES : 4492769597
_STATISTICS_WRITING_APP : mkvmerge v8.2.0 ('World of Adventure') 64bit
_STATISTICS_WRITING_DATE_UTC : 2015-08-08 05:02:43
_STATISTICS_TAGS : BPS DURATION NUMBER_OF_FRAMES NUMBER_OF_BYTES
Аудио
Идентификатор : 2
Формат : DTS
Формат/Информация : Digital Theater Systems
Режим : 16
Параметр Endianness формата : Big
Идентификатор кодека : A_DTS
Продолжительность : 53 м.
Вид битрейта : Постоянный
Битрейт : 1509 Кбит/сек
Каналы : 6 каналов
Расположение каналов : Front: L C R, Side: L R, LFE
Частота : 48,0 КГц
Битовая глубина : 16 бит
Метод сжатия : С потерями
Размер потока : 580 Мбайт (12%)
Заголовок : музыка
Default : Да
Forced : Нет
Общее
Уникальный идентификатор : 181912309455891089685284165491385356500 (0x88DB0951BB43EB8BAE1DF88282A6D0D4)
Полное имя : D:VideoОчарование природы.Трилогия.1996-2004.BDRip.1080pОчарование природы.1996.BDRip.1080p.mkv
Формат : Matroska
Версия формата : Version 4 / Version 2
Размер файла : 6,65 Гбайт
Продолжительность : 1 ч. 29 м.
Общий поток : 10,7 Мбит/сек
Название фильма : BDRip -- STarankov
Дата кодирования : UTC 2015-08-08 05:25:06
Программа кодирования : mkvmerge v8.2.0 ('World of Adventure') 64bit
Библиотека кодирования : libebml v1.3.1 + libmatroska v1.4.2
DURATION : 01:29:03.318000000
NUMBER_OF_FRAMES : 500936
NUMBER_OF_BYTES : 1007883300
_STATISTICS_WRITING_APP : mkvmerge v8.2.0 ('World of Adventure') 64bit
_STATISTICS_WRITING_DATE_UTC : 2015-08-08 05:25:06
_STATISTICS_TAGS : BPS DURATION NUMBER_OF_FRAMES NUMBER_OF_BYTES
Видео
Идентификатор : 1
Формат : AVC
Формат/Информация : Advanced Video Codec
Профиль формата : High@L4.1
Параметр CABAC формата : Да
Параметр ReFrames формата : 4 кадра
Идентификатор кодека : V_MPEG4/ISO/AVC
Продолжительность : 1 ч. 29 м.
Битрейт : 8974 Кбит/сек
Ширина : 1920 пикселей
Высота : 1080 пикселей
Соотношение сторон : 16:9
Режим частоты кадров : Постоянный
Частота кадров : 24,000 кадра/сек
Цветовое пространство : YUV
Субдискретизация насыщенности : 4:2:0
Битовая глубина : 8 бит
Тип развёртки : Прогрессивная
Бит/(Пиксели*Кадры) : 0.180
Размер потока : 5,58 Гбайт (84%)
Библиотека кодирования : x264 core 146 r2538 121396c
Настройки программы : cabac=1 / ref=4 / deblock=1:-1:-1 / analyse=0x3:0x113 / me=umh / subme=10 / psy=1 / psy_rd=1.00:0.15 / mixed_ref=1 / me_range=32 / chroma_me=1 / trellis=2 / 8x8dct=1 / cqm=0 / deadzone=21,11 / fast_pskip=1 / chroma_qp_offset=-3 / threads=6 / lookahead_threads=1 / sliced_threads=0 / nr=0 / decimate=1 / interlaced=0 / bluray_compat=0 / constrained_intra=0 / bframes=8 / b_pyramid=2 / b_adapt=2 / b_bias=0 / direct=1 / weightb=1 / open_gop=0 / weightp=2 / keyint=230 / keyint_min=23 / scenecut=40 / intra_refresh=0 / rc_lookahead=40 / rc=crf / mbtree=0 / crf=19.5 / qcomp=0.60 / qpmin=0 / qpmax=69 / qpstep=4 / vbv_maxrate=40000 / vbv_bufsize=50000 / crf_max=0.0 / nal_hrd=none / filler=0 / ip_ratio=1.40 / pb_ratio=1.30 / aq=1:1.00
Язык : German
Default : Да
Forced : Нет
DURATION : 01:29:03.292000000
NUMBER_OF_FRAMES : 128239
NUMBER_OF_BYTES : 6134244428
_STATISTICS_WRITING_APP : mkvmerge v8.2.0 ('World of Adventure') 64bit
_STATISTICS_WRITING_DATE_UTC : 2015-08-08 05:25:06
_STATISTICS_TAGS : BPS DURATION NUMBER_OF_FRAMES NUMBER_OF_BYTES
Аудио
Идентификатор : 2
Формат : DTS
Формат/Информация : Digital Theater Systems
Режим : 16
Параметр Endianness формата : Big
Идентификатор кодека : A_DTS
Продолжительность : 1 ч. 29 м.
Вид битрейта : Постоянный
Битрейт : 1509 Кбит/сек
Каналы : 6 каналов
Расположение каналов : Front: L C R, Side: L R, LFE
Частота : 48,0 КГц
Битовая глубина : 16 бит
Метод сжатия : С потерями
Размер потока : 961 Мбайт (14%)
Заголовок : музыка
Default : Да
Forced : Нет
Общее
Уникальный идентификатор : 245614418739680394679465560468983219604 (0xB8C79DCB3CB0AB20941E9D9F23B18594)
Полное имя : D:VideoОчарование природы.Трилогия.1996-2004.BDRip.1080pСемь сезонов.2004.BDRip.1080p.mkv
Формат : Matroska
Версия формата : Version 4 / Version 2
Размер файла : 7,55 Гбайт
Продолжительность : 1 ч. 28 м.
Общий поток : 12,3 Мбит/сек
Название фильма : BDRip -- STarankov
Дата кодирования : UTC 2015-08-09 01:00:10
Программа кодирования : mkvmerge v8.2.0 ('World of Adventure') 64bit
Библиотека кодирования : libebml v1.3.1 + libmatroska v1.4.2
DURATION : 01:12:43.791000000
NUMBER_OF_FRAMES : 53
NUMBER_OF_BYTES : 1113
_STATISTICS_WRITING_APP : mkvmerge v8.2.0 ('World of Adventure') 64bit
_STATISTICS_WRITING_DATE_UTC : 2015-08-09 01:00:10
_STATISTICS_TAGS : BPS DURATION NUMBER_OF_FRAMES NUMBER_OF_BYTES
Видео
Идентификатор : 1
Формат : AVC
Формат/Информация : Advanced Video Codec
Профиль формата : High@L4.1
Параметр CABAC формата : Да
Параметр ReFrames формата : 4 кадра
Идентификатор кодека : V_MPEG4/ISO/AVC
Продолжительность : 1 ч. 28 м.
Битрейт : 10,5 Мбит/сек
Ширина : 1920 пикселей
Высота : 1080 пикселей
Соотношение сторон : 16:9
Режим частоты кадров : Постоянный
Частота кадров : 24,000 кадра/сек
Цветовое пространство : YUV
Субдискретизация насыщенности : 4:2:0
Битовая глубина : 8 бит
Тип развёртки : Прогрессивная
Бит/(Пиксели*Кадры) : 0.211
Размер потока : 6,47 Гбайт (86%)
Библиотека кодирования : x264 core 146 r2538 121396c
Настройки программы : cabac=1 / ref=4 / deblock=1:-1:-1 / analyse=0x3:0x113 / me=umh / subme=10 / psy=1 / psy_rd=1.00:0.15 / mixed_ref=1 / me_range=32 / chroma_me=1 / trellis=2 / 8x8dct=1 / cqm=0 / deadzone=21,11 / fast_pskip=1 / chroma_qp_offset=-3 / threads=6 / lookahead_threads=1 / sliced_threads=0 / nr=0 / decimate=1 / interlaced=0 / bluray_compat=0 / constrained_intra=0 / bframes=8 / b_pyramid=2 / b_adapt=2 / b_bias=0 / direct=1 / weightb=1 / open_gop=0 / weightp=2 / keyint=230 / keyint_min=23 / scenecut=40 / intra_refresh=0 / rc_lookahead=40 / rc=crf / mbtree=0 / crf=17.5 / qcomp=0.60 / qpmin=0 / qpmax=69 / qpstep=4 / vbv_maxrate=40000 / vbv_bufsize=50000 / crf_max=0.0 / nal_hrd=none / filler=0 / ip_ratio=1.40 / pb_ratio=1.30 / aq=1:1.00
Язык : German
Default : Да
Forced : Нет
DURATION : 01:28:10.542000000
NUMBER_OF_FRAMES : 126973
NUMBER_OF_BYTES : 7102480458
_STATISTICS_WRITING_APP : mkvmerge v8.2.0 ('World of Adventure') 64bit
_STATISTICS_WRITING_DATE_UTC : 2015-08-09 01:00:10
_STATISTICS_TAGS : BPS DURATION NUMBER_OF_FRAMES NUMBER_OF_BYTES
Аудио
Идентификатор : 2
Формат : DTS
Формат/Информация : Digital Theater Systems
Режим : 16
Параметр Endianness формата : Big
Идентификатор кодека : A_DTS
Продолжительность : 1 ч. 28 м.
Вид битрейта : Постоянный
Битрейт : 1509 Кбит/сек
Каналы : 6 каналов
Расположение каналов : Front: L C R, Side: L R, LFE
Частота : 48,0 КГц
Битовая глубина : 16 бит
Метод сжатия : С потерями
Размер потока : 952 Мбайт (12%)
Заголовок : музыка
Default : Да
Forced : Нет
Текст
Идентификатор : 3
Формат : UTF-8
Идентификатор кодека : S_TEXT/UTF8
Идентификатор кодека/Информация : UTF-8 Plain Text
Заголовок : места
Язык : English
Default : Да
Forced : Да





   Похожие торренты   Торрент   Размер 
В этой теме нет новых непрочитанных сообщений. Очарование природы. Трилогия / Fascinating Nature. Trilogie (1996-2004) BDRip-AVC by msltel

141 | 49

5.57 ГБ

В этой теме нет новых непрочитанных сообщений. Очарование природы. Трилогия / Fascinating Nature. Trilogie (1996-2004) BDRip 720p by msltel

55 | 41

8.22 ГБ

В этой теме нет новых непрочитанных сообщений. Стихийные бедствия: силы природы / Natural Disasters: Forces of Nature (2004) BDRip-AVC от Тorrent-Хzona

0 | 3

644.9 МБ

В этой теме нет новых непрочитанных сообщений. Мир живой природы VI / Чудеса природы / NHK. Nature Wonder Land VI [01-12 из 13] (2012) HDTVRip от GeneralFilm

96 | 28

3.52 ГБ

В этой теме нет новых непрочитанных сообщений. Мир живой природы VI / Чудеса природы / NHK. Nature Wonder Land VI [01-13 из 13] (2012) HDTVRip от GeneralFilm

24 | 9

3.81 ГБ

В этой теме нет новых непрочитанных сообщений. Блэйд: Трилогия / Blade: Trilogy (1998-2004) BDRip 1080p от R.G. HD-Films | 60 fps | Трилогия

66 | 41

37.07 ГБ

В этой теме нет новых непрочитанных сообщений. Величайшие явления природы / BBC: Nature's Great Events (2009) BDRip от HELLYWOOD

75 | 22

6.53 ГБ




Вы не можете начинать темы
Вы не можете отвечать на сообщения
Вы не можете редактировать свои сообщения
Вы не можете удалять свои сообщения
Вы не можете добавлять вложения

Перейти:  
Для Мосгорсуда, Роскомнадзора и рекламодателей: mosgorsud-torrent[собачка]yandex.ru
 Вход
ppkBB3cker v.2 © 2008-2014 @ PPK
[ Time : 0.031s | 14 Queries | GZIP : Off ]

Торрент трекер RUTOR.IN, Не можете зайти на rutor.org? Какой новый адрес рутор? Какое зеркало рутор? Не работает rutor.org и зеркала? Тогда наш торрент специально для вас. Rutor.in неофициальное зеркало rutor. В случае если у Вас заблокирован rutor или вдруг Вы не можете на него зайти, то Вы без труда сможете скачать бесплатно и без рекламы последние новинки кино, игр, сериалов и прочего у нас, на Rutor.in. Не нужно использовать прокси, чтобы зайти на рутор, достаточно воспользоваться нашим ресурсом. Все новые фильмы, игры, сериалы, книги и музыка за 2013 и 2014 годы через торрент бесплатно. Скачивайте фильмы в хорошем качестве, игры для пк, xbox, playstation без регистрации. У нас вы найдете новые Зарубежные сериалы и Русские сериалы 2013, 2014, 2015 годов. Оставайтесь с нами, качайте любимые фильмы, игры, сериалы, книги и музыку.