img image001 image001 image001 image001 image001 image001 image001 image001 image001 image001 image001 image001 image001 image001 image001

Planets Sun Sun Sun
Статистика раздачи
Автор: Nickolas3434 | Размер: 1.21 ГБ | Добавлен: 14 авг 2015
Раздают: 28    Качают: 8
Скачать торрент
Скачать торрент
Описание торрента

СообщениеДобавлено: 14 авг 2015 


Название: Дикая Южная Африка: Сафари
Оригинальное название: Wildlife South Africa: Safari
Год выпуска: 2012
Страна: Германия
Жанр: документальный
Продолжительность: 00:49:27
Перевод: профессиональный одноголосый
Режиссёр: Норберт Вандер
Описание: Очень популярным в мире видом туризма является поездка в Африку на сафари. Он позволяет сохранить обитателей дикой природы и заповедников в их родной среде обитания. В этом фильме мы увидим не только львов, леопардов, носорогов, слонов и буйволов, но также бегемотов, антилоп и редких диких собак. А также по общаемся с работником заповедника. В фильме показана жизнь животных Южной Африки.

Качество: BDRip AVC
Формат: MKV
Видео: MPEG-4 AVC, 2529 Кбит/с, 1024x576, 23,976 кадра/с
Аудио 1: русский, AC3, 448 kbps, 6 ch, 48 kHz [профессиональный одноголосый]
Аудио 2: английский, AC3, 448 kbps, 6 ch, 48 kHz [оригинал]
Общее
Уникальный идентификатор : 222975515958331066725817874488539761543 (0xA7BF85B5C6B3B07D9A9908B026B84B87)
Полное имя : D:VideoДикая Южная Африка.2012.BDRip.AVC.mkv
Формат : Matroska
Версия формата : Version 4 / Version 2
Размер файла : 1,21 Гбайт
Продолжительность : 49 м.
Общий поток : 3494 Кбит/сек
Название фильма : BDRip -- STarankov
Дата кодирования : UTC 2015-08-11 14:46:28
Программа кодирования : mkvmerge v8.2.0 ('World of Adventure') 64bit
Библиотека кодирования : libebml v1.3.1 + libmatroska v1.4.2
DURATION : 00:49:27.360000000
NUMBER_OF_FRAMES : 92730
NUMBER_OF_BYTES : 166172160
_STATISTICS_WRITING_APP : mkvmerge v8.2.0 ('World of Adventure') 64bit
_STATISTICS_WRITING_DATE_UTC : 2015-08-11 14:46:28
_STATISTICS_TAGS : BPS DURATION NUMBER_OF_FRAMES NUMBER_OF_BYTES
Видео
Идентификатор : 1
Формат : AVC
Формат/Информация : Advanced Video Codec
Профиль формата : High@L4.1
Параметр CABAC формата : Да
Параметр ReFrames формата : 9 кадров
Идентификатор кодека : V_MPEG4/ISO/AVC
Продолжительность : 49 м.
Битрейт : 2529 Кбит/сек
Ширина : 1024 пикселя
Высота : 576 пикселей
Соотношение сторон : 16:9
Режим частоты кадров : Постоянный
Частота кадров : 23,976 кадра/сек
Цветовое пространство : YUV
Субдискретизация насыщенности : 4:2:0
Битовая глубина : 8 бит
Тип развёртки : Прогрессивная
Бит/(Пиксели*Кадры) : 0.179
Размер потока : 894 Мбайт (72%)
Библиотека кодирования : x264 core 146 r2538 121396c
Настройки программы : cabac=1 / ref=9 / deblock=1:-1:-1 / analyse=0x3:0x113 / me=umh / subme=10 / psy=1 / psy_rd=1.00:0.15 / mixed_ref=1 / me_range=32 / chroma_me=1 / trellis=2 / 8x8dct=1 / cqm=0 / deadzone=21,11 / fast_pskip=1 / chroma_qp_offset=-3 / threads=6 / lookahead_threads=1 / sliced_threads=0 / nr=0 / decimate=1 / interlaced=0 / bluray_compat=0 / constrained_intra=0 / bframes=10 / b_pyramid=2 / b_adapt=2 / b_bias=0 / direct=1 / weightb=1 / open_gop=0 / weightp=2 / keyint=230 / keyint_min=23 / scenecut=40 / intra_refresh=0 / rc_lookahead=40 / rc=crf / mbtree=0 / crf=20.0 / qcomp=0.60 / qpmin=0 / qpmax=69 / qpstep=4 / vbv_maxrate=40000 / vbv_bufsize=50000 / crf_max=0.0 / nal_hrd=none / filler=0 / ip_ratio=1.40 / pb_ratio=1.30 / aq=1:1.00
Язык : English
Default : Да
Forced : Нет
DURATION : 00:49:27.340000000
NUMBER_OF_FRAMES : 71145
NUMBER_OF_BYTES : 963001191
_STATISTICS_WRITING_APP : mkvmerge v8.2.0 ('World of Adventure') 64bit
_STATISTICS_WRITING_DATE_UTC : 2015-08-11 14:46:28
_STATISTICS_TAGS : BPS DURATION NUMBER_OF_FRAMES NUMBER_OF_BYTES
Аудио #1
Идентификатор : 2
Формат : AC-3
Формат/Информация : Audio Coding 3
Расширение режима : CM (complete main)
Параметр Endianness формата : Big
Идентификатор кодека : A_AC3
Продолжительность : 49 м.
Вид битрейта : Постоянный
Битрейт : 448 Кбит/сек
Каналы : 6 каналов
Расположение каналов : Front: L C R, Side: L R, LFE
Частота : 48,0 КГц
Метод сжатия : С потерями
Размер потока : 158 Мбайт (13%)
Заголовок : профессиональный одноголосый
Язык : Russian
Default : Да
Forced : Нет
Аудио #2
Идентификатор : 3
Формат : AC-3
Формат/Информация : Audio Coding 3
Расширение режима : CM (complete main)
Параметр Endianness формата : Big
Идентификатор кодека : A_AC3
Продолжительность : 49 м.
Вид битрейта : Постоянный
Битрейт : 448 Кбит/сек
Каналы : 6 каналов
Расположение каналов : Front: L C R, Side: L R, LFE
Частота : 48,0 КГц
Метод сжатия : С потерями
Размер потока : 158 Мбайт (13%)
Заголовок : Original
Язык : English
Default : Нет
Forced : Нет





   Похожие торренты   Торрент   Размер 
В этой теме нет новых непрочитанных сообщений. Дикая Южная Африка: Сафари / Wildlife South Africa: Safari (2012) BDRip 1080p by msltel

70 | 15

4.27 ГБ

В этой теме нет новых непрочитанных сообщений. Дикая Южная Африка: Сафари / Wildlife South Africa: Safari (2012) BDRip 720p by msltel

44 | 12

1.71 ГБ

В этой теме нет новых непрочитанных сообщений. Дикая Южная Африка: Сафари / Wildlife South Africa: Safari (2012) BDRip от HitWay | P1

29 | 3

724.62 МБ

В этой теме нет новых непрочитанных сообщений. Дикая Южная Африка: Сафари / Wildlife South Africa: Safari (2012) BDRip 720p от denis 100 | P1

19 | 10

2.18 ГБ

В этой теме нет новых непрочитанных сообщений. Дикая Южная Африка: Сафари / Wildlife South Africa: Safar (2012) BDRemux 1080p от ExKinoRay | P1

3 | 32

9.69 ГБ

В этой теме нет новых непрочитанных сообщений. Тайны планеты Земля. Дикая Южная Африка. Сафари / Wildlife South Africa: Safar (2012) DVDRip-AVC от -=HD-NET=-

17 | 5

625.64 МБ

В этой теме нет новых непрочитанных сообщений. Дикая Южная Африка: Большая пятерка / Wildlife South Africa: Big Five (2012) BDRip от HitWay | P1

23 | 12

696.86 МБ




Вы не можете начинать темы
Вы не можете отвечать на сообщения
Вы не можете редактировать свои сообщения
Вы не можете удалять свои сообщения
Вы не можете добавлять вложения

Перейти:  
Для Мосгорсуда, Роскомнадзора и рекламодателей: mosgorsud-torrent[собачка]yandex.ru
 Вход
ppkBB3cker v.2 © 2008-2014 @ PPK
[ Time : 0.018s | 14 Queries | GZIP : Off ]

Торрент трекер RUTOR.IN, Не можете зайти на rutor.org? Какой новый адрес рутор? Какое зеркало рутор? Не работает rutor.org и зеркала? Тогда наш торрент специально для вас. Rutor.in неофициальное зеркало rutor. В случае если у Вас заблокирован rutor или вдруг Вы не можете на него зайти, то Вы без труда сможете скачать бесплатно и без рекламы последние новинки кино, игр, сериалов и прочего у нас, на Rutor.in. Не нужно использовать прокси, чтобы зайти на рутор, достаточно воспользоваться нашим ресурсом. Все новые фильмы, игры, сериалы, книги и музыка за 2013 и 2014 годы через торрент бесплатно. Скачивайте фильмы в хорошем качестве, игры для пк, xbox, playstation без регистрации. У нас вы найдете новые Зарубежные сериалы и Русские сериалы 2013, 2014, 2015 годов. Оставайтесь с нами, качайте любимые фильмы, игры, сериалы, книги и музыку.