img image001 image001 image001 image001 image001 image001 image001 image001 image001 image001 image001 image001 image001 image001 image001

Planets Sun Sun Sun
Статистика раздачи
Автор: Nickolas3434 | Размер: 766.46 МБ | Добавлен: 24 авг 2015
Раздают: 271    Качают: 21
Скачать торрент
Скачать торрент
Описание торрента

СообщениеДобавлено: 24 авг 2015 


Оригинальное название: How We Built the Bomb
Название: Рождение атомной бомбы
Жанр: Документальный, война, история
Год: 2013

..В 1943 году, в разгар Второй мировой войны - группа американских экспертов, представляющих различные области науки, получают таинственное и секретное письмо. Письмо содержит только адрес и время встречи. Это было началом проекта, по созданию атомной бомбы, которая полностью изменила взгляд на средства ведения войны.
Самые выдающиеся американские физики направили все свои силы на укрощение мощи атома, чтобы опередить фашистов на этом поприще. Разрушительное оружие массового уничтожения должно было обеспечить американцам неоспоримую победу.
Первый ядерный взрыв произведен на испытаниях 16 июля 1945 года. Может ли атомная вспышка привести к всемирной катастрофе? Фильм расскажет историю крупнейшей исследовательской программы Америки, которая создала самое разрушительное оружие в истории мира.
Страна: США
Студия: Discovery Channel
Продолжительность: 01:27:20
Перевод: Дублированный
Кодек: Xvid
Контейнер: AVI
Качество: HDTVRip
Видео: 700х400, 1024 Кбит/сек, 23,976 кадра/сек
Звук: AC3, 2 ch, 192 kbps
Субтитры: Отсутствуют


Полное имя :Рождение атомной бомбы 2013 HDTVRipRozdenye atomnoy bomby. 2013.HDTVRip..avi
Формат : AVI
Формат/Информация : Audio Video Interleave
Размер файла : 766 Мбайт
Продолжительность : 1 ч. 27 м.
Общий поток : 1227 Кбит/сек
Программа кодирования : Lavf56.40.101
Видео
Идентификатор : 0
Формат : MPEG-4 Visual
Профиль формата : Simple@L3
Параметр BVOP формата : Нет
Параметр QPel формата : Нет
Параметр GMC формата : Без точки перехода
Параметр матрицы формата : Default (H.263)
Идентификатор кодека : XVID
Идентификатор кодека/Подсказка : XviD
Продолжительность : 1 ч. 27 м.
Битрейт : 1024 Кбит/сек
Ширина : 700 пикселей
Высота : 400 пикселей
Соотношение сторон : 16:9
Частота кадров : 23,976 кадра/сек
Цветовое пространство : YUV
Субдискретизация насыщенности : 4:2:0
Битовая глубина : 8 бит
Тип развёртки : Прогрессивная
Метод сжатия : С потерями
Бит/(Пиксели*Кадры) : 0.153
Размер потока : 640 Мбайт (83%)
Библиотека кодирования : XviD 67
Аудио
Идентификатор : 1
Формат : AC-3
Формат/Информация : Audio Coding 3
Расширение режима : CM (complete main)
Параметр Endianness формата : Big
Идентификатор кодека : 2000
Продолжительность : 1 ч. 27 м.
Вид битрейта : Постоянный
Битрейт : 192 Кбит/сек
Каналы : 2 канала
Расположение каналов : Front: L R
Частота : 48,0 КГц
Битовая глубина : 16 бит
Метод сжатия : С потерями
Размер потока : 120 Мбайт (16%)
Выравнивание : Соединение по промежуткам
Продолжительность промежутка : 32 мс. (0,77 видеокадр)






   Похожие торренты   Торрент   Размер 
В этой теме нет новых непрочитанных сообщений. Девушки и бомбы / Bomb Girls [S02] (2013) HDTVRip | L1

39 | 13

5.9 ГБ

В этой теме нет новых непрочитанных сообщений. Девушки и бомбы / Bomb Girls [S01] (2012) WEB-DLRip | L

28 | 10

3.48 ГБ

В этой теме нет новых непрочитанных сообщений. Девушки и бомбы / Bomb Girls [S01] (2012) WEB-DL 720p | BaibaKo

13 | 7

9.05 ГБ

В этой теме нет новых непрочитанных сообщений. Девушки и бомбы / Bomb Girls [01x01] (2012) WEB-DLRip от ananasix

0 | 1

673.98 МБ

В этой теме нет новых непрочитанных сообщений. Код Кирилла. Рождение цивилизации (2013) HDTVRip от Rulya74

230 | 93

702.72 МБ

В этой теме нет новых непрочитанных сообщений. Рейнджер из атомной зоны (1999) DVB от AND03AND

18 | 4

1.45 ГБ

В этой теме нет новых непрочитанных сообщений. Мужчины, которые построили Америку / The Men Who Built America [01x01-05 из 08] (2012) HDTVRip | D

114 | 26

2.99 ГБ




Вы не можете начинать темы
Вы не можете отвечать на сообщения
Вы не можете редактировать свои сообщения
Вы не можете удалять свои сообщения
Вы не можете добавлять вложения

Перейти:  
Для Мосгорсуда, Роскомнадзора и рекламодателей: mosgorsud-torrent[собачка]yandex.ru
 Вход
ppkBB3cker v.2 © 2008-2014 @ PPK
[ Time : 0.102s | 14 Queries | GZIP : Off ]

Торрент трекер RUTOR.IN, Не можете зайти на rutor.org? Какой новый адрес рутор? Какое зеркало рутор? Не работает rutor.org и зеркала? Тогда наш торрент специально для вас. Rutor.in неофициальное зеркало rutor. В случае если у Вас заблокирован rutor или вдруг Вы не можете на него зайти, то Вы без труда сможете скачать бесплатно и без рекламы последние новинки кино, игр, сериалов и прочего у нас, на Rutor.in. Не нужно использовать прокси, чтобы зайти на рутор, достаточно воспользоваться нашим ресурсом. Все новые фильмы, игры, сериалы, книги и музыка за 2013 и 2014 годы через торрент бесплатно. Скачивайте фильмы в хорошем качестве, игры для пк, xbox, playstation без регистрации. У нас вы найдете новые Зарубежные сериалы и Русские сериалы 2013, 2014, 2015 годов. Оставайтесь с нами, качайте любимые фильмы, игры, сериалы, книги и музыку.