img image001 image001 image001 image001 image001 image001 image001 image001 image001 image001 image001 image001 image001 image001 image001

Planets Sun Sun Sun
Статистика раздачи
Автор: Nickolas3434 | Размер: 4.28 ГБ | Добавлен: 29 авг 2015
Раздают: 156    Качают: 28
Скачать торрент
Скачать торрент
Описание торрента

СообщениеДобавлено: 29 авг 2015 


Оригинальное название: Человек с киноаппаратом. Квадрология
Год выпуска: 1924-1934
Страна: СССР
Жанр: документальный
Продолжительность: 01:18:29+01:07:50+01:01:10+01:06:15
Перевод: немое кино
Режиссёр: Дзига Вертов
Оператор: Михаил Кауфман
Описание: В кадре кинокамеры люди, места, объекты. Киноаппарат здесь является действующим лицом самого процесса съёмки: в воздухе, под землей, в самой гуще событий. Киноглаз, который наблюдает, фиксирует малейшие нюансы, не давая оценки, не следуя сценарию. Он просто смотрит в мир и видит всё, или, вернее, происходит видение!

Качество: BDRip AVC
Формат: MKV
Видео: MPEG-4 AVC, 726x576, 24 кадра/с
Аудио: AC3, 192 kbps, 2 ch, 48 kHz [музыка]
Кино-глаз (1924) - Кинематографическое стихотворение, в котором Вертов закладывает основу своих принципов. Фильм показывает невероятную силу своих теорий, но также красоту и энергию общества, которое встряхнула революция, готовность к вызову сложного будущего. (1:18:29)
Кино-Правда # 21 (1925 - Кинохроника сделана, чтобы отметить первую годовщину смерти Ленина, а также буклет с информацией о жизни и творчестве Вертова. (1:07:50)
Энтузиазм: Симфония Донбасса (1931) - Один из первых советских звуковых фильмов о пятилетнем плане в конце 1920-х, и представляет радикальную попытку Вертова связать экономический прогресс с введением звука в кино. (1:06:15)
Три песни о Ленине (1934) - наиболее личная работа Вертова. Триптих возносит советского лидера через 10 лет после его смерти как это видно глазами людей. (1:01:10)

Общее
Уникальный идентификатор : 215019533396555845444601673514729211662 (0xA1C3417C1625416AA0F55EDE06C2070E)
Полное имя : D:VideoЧеловек с киноаппаратом.Квадрология.1924-1934.BDRip.AVCКино-глаз.1924.BDRip.AVC.mkv
Формат : Matroska
Версия формата : Version 4 / Version 2
Размер файла : 1,20 Гбайт
Продолжительность : 1 ч. 18 м.
Общий поток : 2196 Кбит/сек
Название фильма : BDRip -- STarankov
Дата кодирования : UTC 2015-08-27 14:39:03
Программа кодирования : mkvmerge v8.2.0 ('World of Adventure') 64bit
Библиотека кодирования : libebml v1.3.1 + libmatroska v1.4.2
DURATION : 01:18:29.440000000
NUMBER_OF_FRAMES : 147170
NUMBER_OF_BYTES : 113026560
_STATISTICS_WRITING_APP : mkvmerge v8.2.0 ('World of Adventure') 64bit
_STATISTICS_WRITING_DATE_UTC : 2015-08-27 14:39:03
_STATISTICS_TAGS : BPS DURATION NUMBER_OF_FRAMES NUMBER_OF_BYTES
Видео
Идентификатор : 1
Формат : AVC
Формат/Информация : Advanced Video Codec
Профиль формата : High@L4.1
Параметр CABAC формата : Да
Параметр ReFrames формата : 9 кадров
Идентификатор кодека : V_MPEG4/ISO/AVC
Продолжительность : 1 ч. 18 м.
Битрейт : 1961 Кбит/сек
Ширина : 726 пикселей
Высота : 576 пикселей
Соотношение сторон : 5:4
Режим частоты кадров : Постоянный
Частота кадров : 24,000 кадра/сек
Цветовое пространство : YUV
Субдискретизация насыщенности : 4:2:0
Битовая глубина : 8 бит
Тип развёртки : Прогрессивная
Бит/(Пиксели*Кадры) : 0.195
Размер потока : 1,07 Гбайт (89%)
Заголовок : музыка
Библиотека кодирования : x264 core 146 r2538 121396c
Настройки программы : cabac=1 / ref=9 / deblock=1:-3:-3 / analyse=0x3:0x113 / me=umh / subme=10 / psy=1 / psy_rd=1.00:0.15 / mixed_ref=1 / me_range=32 / chroma_me=1 / trellis=2 / 8x8dct=1 / cqm=0 / deadzone=21,11 / fast_pskip=1 / chroma_qp_offset=-3 / threads=6 / lookahead_threads=1 / sliced_threads=0 / nr=0 / decimate=1 / interlaced=0 / bluray_compat=0 / constrained_intra=0 / bframes=11 / b_pyramid=2 / b_adapt=2 / b_bias=0 / direct=1 / weightb=1 / open_gop=0 / weightp=2 / keyint=230 / keyint_min=23 / scenecut=40 / intra_refresh=0 / rc_lookahead=40 / rc=crf / mbtree=0 / crf=22.0 / qcomp=0.60 / qpmin=0 / qpmax=69 / qpstep=4 / vbv_maxrate=40000 / vbv_bufsize=50000 / crf_max=0.0 / nal_hrd=none / filler=0 / ip_ratio=1.40 / pb_ratio=1.30 / aq=1:1.00
Язык : Russian
Default : Нет
Forced : Нет
DURATION : 01:18:29.167000000
NUMBER_OF_FRAMES : 113020
NUMBER_OF_BYTES : 1178981370
_STATISTICS_WRITING_APP : mkvmerge v8.2.0 ('World of Adventure') 64bit
_STATISTICS_WRITING_DATE_UTC : 2015-08-27 14:39:03
_STATISTICS_TAGS : BPS DURATION NUMBER_OF_FRAMES NUMBER_OF_BYTES
Аудио
Идентификатор : 2
Формат : AC-3
Формат/Информация : Audio Coding 3
Расширение режима : CM (complete main)
Параметр Endianness формата : Big
Идентификатор кодека : A_AC3
Продолжительность : 1 ч. 18 м.
Вид битрейта : Постоянный
Битрейт : 192 Кбит/сек
Каналы : 2 канала
Расположение каналов : Front: L R
Частота : 48,0 КГц
Метод сжатия : С потерями
Размер потока : 108 Мбайт (9%)
Default : Да
Forced : Нет
Общее
Уникальный идентификатор : 240269617917429657240637459038192321348 (0xB4C23EC4996560A2AF66ED5385B0C344)
Полное имя : D:VideoЧеловек с киноаппаратом.Квадрология.1924-1934.BDRip.AVCКино-Правда # 21.1925.BDRip.AVC.mkv
Формат : Matroska
Версия формата : Version 4 / Version 2
Размер файла : 1,10 Гбайт
Продолжительность : 1 ч. 7 м.
Общий поток : 2325 Кбит/сек
Название фильма : BDRip -- STarankov
Дата кодирования : UTC 2015-08-28 01:14:47
Программа кодирования : mkvmerge v8.2.0 ('World of Adventure') 64bit
Библиотека кодирования : libebml v1.3.1 + libmatroska v1.4.2
DURATION : 01:07:50.816000000
NUMBER_OF_FRAMES : 127213
NUMBER_OF_BYTES : 97699584
_STATISTICS_WRITING_APP : mkvmerge v8.2.0 ('World of Adventure') 64bit
_STATISTICS_WRITING_DATE_UTC : 2015-08-28 01:14:47
_STATISTICS_TAGS : BPS DURATION NUMBER_OF_FRAMES NUMBER_OF_BYTES
Видео
Идентификатор : 1
Формат : AVC
Формат/Информация : Advanced Video Codec
Профиль формата : High@L4.1
Параметр CABAC формата : Да
Параметр ReFrames формата : 9 кадров
Идентификатор кодека : V_MPEG4/ISO/AVC
Продолжительность : 1 ч. 7 м.
Битрейт : 2087 Кбит/сек
Ширина : 768 пикселей
Высота : 576 пикселей
Соотношение сторон : 4:3
Режим частоты кадров : Постоянный
Частота кадров : 24,000 кадра/сек
Цветовое пространство : YUV
Субдискретизация насыщенности : 4:2:0
Битовая глубина : 8 бит
Тип развёртки : Прогрессивная
Бит/(Пиксели*Кадры) : 0.197
Размер потока : 1013 Мбайт (90%)
Библиотека кодирования : x264 core 146 r2538 121396c
Настройки программы : cabac=1 / ref=9 / deblock=1:-3:-3 / analyse=0x3:0x113 / me=umh / subme=10 / psy=1 / psy_rd=1.00:0.15 / mixed_ref=1 / me_range=32 / chroma_me=1 / trellis=2 / 8x8dct=1 / cqm=0 / deadzone=21,11 / fast_pskip=1 / chroma_qp_offset=-3 / threads=6 / lookahead_threads=1 / sliced_threads=0 / nr=0 / decimate=1 / interlaced=0 / bluray_compat=0 / constrained_intra=0 / bframes=11 / b_pyramid=2 / b_adapt=2 / b_bias=0 / direct=1 / weightb=1 / open_gop=0 / weightp=2 / keyint=230 / keyint_min=23 / scenecut=40 / intra_refresh=0 / rc_lookahead=40 / rc=crf / mbtree=0 / crf=21.8 / qcomp=0.60 / qpmin=0 / qpmax=69 / qpstep=4 / vbv_maxrate=40000 / vbv_bufsize=50000 / crf_max=0.0 / nal_hrd=none / filler=0 / ip_ratio=1.40 / pb_ratio=1.30 / aq=1:1.00
Язык : Russian
Default : Да
Forced : Нет
DURATION : 01:07:50.834000000
NUMBER_OF_FRAMES : 97700
NUMBER_OF_BYTES : 1084515483
_STATISTICS_WRITING_APP : mkvmerge v8.2.0 ('World of Adventure') 64bit
_STATISTICS_WRITING_DATE_UTC : 2015-08-28 01:14:47
_STATISTICS_TAGS : BPS DURATION NUMBER_OF_FRAMES NUMBER_OF_BYTES
Аудио
Идентификатор : 2
Формат : AC-3
Формат/Информация : Audio Coding 3
Расширение режима : CM (complete main)
Параметр Endianness формата : Big
Идентификатор кодека : A_AC3
Продолжительность : 1 ч. 7 м.
Вид битрейта : Постоянный
Битрейт : 192 Кбит/сек
Каналы : 2 канала
Расположение каналов : Front: L R
Частота : 48,0 КГц
Метод сжатия : С потерями
Размер потока : 93,2 Мбайт (8%)
Заголовок : музыка
Язык : Russian
Default : Да
Forced : Нет
Общее
Уникальный идентификатор : 234080356904521062997313323782449109546 (0xB01A3CA3DFE112EFA1A35E19ACC39A2A)
Полное имя : D:VideoЧеловек с киноаппаратом.Квадрология.1924-1934.BDRip.AVCТри песни о Ленине.1934.BDRip.AVC.mkv
Формат : Matroska
Версия формата : Version 4 / Version 2
Размер файла : 951 Мбайт
Продолжительность : 1 ч. 1 м.
Общий поток : 2173 Кбит/сек
Название фильма : BDRip -- STarankov
Дата кодирования : UTC 2015-08-28 01:17:07
Программа кодирования : mkvmerge v8.2.0 ('World of Adventure') 64bit
Библиотека кодирования : libebml v1.3.1 + libmatroska v1.4.2
DURATION : 01:01:10.144000000
NUMBER_OF_FRAMES : 114692
NUMBER_OF_BYTES : 88083456
_STATISTICS_WRITING_APP : mkvmerge v8.2.0 ('World of Adventure') 64bit
_STATISTICS_WRITING_DATE_UTC : 2015-08-28 01:17:07
_STATISTICS_TAGS : BPS DURATION NUMBER_OF_FRAMES NUMBER_OF_BYTES
Видео
Идентификатор : 1
Формат : AVC
Формат/Информация : Advanced Video Codec
Профиль формата : High@L4.1
Параметр CABAC формата : Да
Параметр ReFrames формата : 9 кадров
Идентификатор кодека : V_MPEG4/ISO/AVC
Продолжительность : 1 ч. 1 м.
Битрейт : 1938 Кбит/сек
Ширина : 694 пикселя
Высота : 576 пикселей
Соотношение сторон : 1,205
Режим частоты кадров : Постоянный
Частота кадров : 24,000 кадра/сек
Цветовое пространство : YUV
Субдискретизация насыщенности : 4:2:0
Битовая глубина : 8 бит
Тип развёртки : Прогрессивная
Бит/(Пиксели*Кадры) : 0.202
Размер потока : 848 Мбайт (89%)
Заголовок : музыка
Библиотека кодирования : x264 core 146 r2538 121396c
Настройки программы : cabac=1 / ref=9 / deblock=1:-3:-3 / analyse=0x3:0x113 / me=umh / subme=10 / psy=1 / psy_rd=1.00:0.15 / mixed_ref=1 / me_range=32 / chroma_me=1 / trellis=2 / 8x8dct=1 / cqm=0 / deadzone=21,11 / fast_pskip=1 / chroma_qp_offset=-3 / threads=6 / lookahead_threads=1 / sliced_threads=0 / nr=0 / decimate=1 / interlaced=0 / bluray_compat=0 / constrained_intra=0 / bframes=12 / b_pyramid=2 / b_adapt=2 / b_bias=0 / direct=1 / weightb=1 / open_gop=0 / weightp=2 / keyint=230 / keyint_min=23 / scenecut=40 / intra_refresh=0 / rc_lookahead=40 / rc=crf / mbtree=0 / crf=22.7 / qcomp=0.60 / qpmin=0 / qpmax=69 / qpstep=4 / vbv_maxrate=40000 / vbv_bufsize=50000 / crf_max=0.0 / nal_hrd=none / filler=0 / ip_ratio=1.40 / pb_ratio=1.30 / aq=1:1.00
Язык : Russian
Default : Да
Forced : Нет
DURATION : 01:01:10.125000000
NUMBER_OF_FRAMES : 88083
NUMBER_OF_BYTES : 908233628
_STATISTICS_WRITING_APP : mkvmerge v8.2.0 ('World of Adventure') 64bit
_STATISTICS_WRITING_DATE_UTC : 2015-08-28 01:17:07
_STATISTICS_TAGS : BPS DURATION NUMBER_OF_FRAMES NUMBER_OF_BYTES
Аудио
Идентификатор : 2
Формат : AC-3
Формат/Информация : Audio Coding 3
Расширение режима : CM (complete main)
Параметр Endianness формата : Big
Идентификатор кодека : A_AC3
Продолжительность : 1 ч. 1 м.
Вид битрейта : Постоянный
Битрейт : 192 Кбит/сек
Каналы : 2 канала
Расположение каналов : Front: L R
Частота : 48,0 КГц
Метод сжатия : С потерями
Размер потока : 84,0 Мбайт (9%)
Default : Да
Forced : Нет
Общее
Уникальный идентификатор : 236170986985839047985012179806108183405 (0xB1ACE0A94A177889AA499ECCD6A6EB6D)
Полное имя : D:VideoЧеловек с киноаппаратом.Квадрология.1924-1934.BDRip.AVCЭнтузиазм.1931.BDRip.AVC.mkv
Формат : Matroska
Версия формата : Version 4 / Version 2
Размер файла : 1,05 Гбайт
Продолжительность : 1 ч. 6 м.
Общий поток : 2269 Кбит/сек
Название фильма : BDRip -- STarankov
Дата кодирования : UTC 2015-08-28 01:20:16
Программа кодирования : mkvmerge v8.2.0 ('World of Adventure') 64bit
Библиотека кодирования : libebml v1.3.1 + libmatroska v1.4.2
DURATION : 01:06:15.392000000
NUMBER_OF_FRAMES : 124231
NUMBER_OF_BYTES : 95409408
_STATISTICS_WRITING_APP : mkvmerge v8.2.0 ('World of Adventure') 64bit
_STATISTICS_WRITING_DATE_UTC : 2015-08-28 01:20:16
_STATISTICS_TAGS : BPS DURATION NUMBER_OF_FRAMES NUMBER_OF_BYTES
Видео
Идентификатор : 1
Формат : AVC
Формат/Информация : Advanced Video Codec
Профиль формата : High@L4.1
Параметр CABAC формата : Да
Параметр ReFrames формата : 9 кадров
Идентификатор кодека : V_MPEG4/ISO/AVC
Продолжительность : 1 ч. 6 м.
Битрейт : 2032 Кбит/сек
Ширина : 694 пикселя
Высота : 576 пикселей
Соотношение сторон : 1,205
Режим частоты кадров : Постоянный
Частота кадров : 24,000 кадра/сек
Цветовое пространство : YUV
Субдискретизация насыщенности : 4:2:0
Битовая глубина : 8 бит
Тип развёртки : Прогрессивная
Бит/(Пиксели*Кадры) : 0.212
Размер потока : 963 Мбайт (90%)
Библиотека кодирования : x264 core 146 r2538 121396c
Настройки программы : cabac=1 / ref=9 / deblock=1:-3:-3 / analyse=0x3:0x113 / me=umh / subme=10 / psy=1 / psy_rd=1.00:0.15 / mixed_ref=1 / me_range=32 / chroma_me=1 / trellis=2 / 8x8dct=1 / cqm=0 / deadzone=21,11 / fast_pskip=1 / chroma_qp_offset=-3 / threads=6 / lookahead_threads=1 / sliced_threads=0 / nr=0 / decimate=1 / interlaced=0 / bluray_compat=0 / constrained_intra=0 / bframes=12 / b_pyramid=2 / b_adapt=2 / b_bias=0 / direct=1 / weightb=1 / open_gop=0 / weightp=2 / keyint=230 / keyint_min=23 / scenecut=40 / intra_refresh=0 / rc_lookahead=40 / rc=crf / mbtree=0 / crf=23.0 / qcomp=0.60 / qpmin=0 / qpmax=69 / qpstep=4 / vbv_maxrate=40000 / vbv_bufsize=50000 / crf_max=0.0 / nal_hrd=none / filler=0 / ip_ratio=1.40 / pb_ratio=1.30 / aq=1:1.00
Язык : Russian
Default : Да
Forced : Нет
DURATION : 01:06:15.417000000
NUMBER_OF_FRAMES : 95410
NUMBER_OF_BYTES : 1031122385
_STATISTICS_WRITING_APP : mkvmerge v8.2.0 ('World of Adventure') 64bit
_STATISTICS_WRITING_DATE_UTC : 2015-08-28 01:20:16
_STATISTICS_TAGS : BPS DURATION NUMBER_OF_FRAMES NUMBER_OF_BYTES
Аудио
Идентификатор : 2
Формат : AC-3
Формат/Информация : Audio Coding 3
Расширение режима : CM (complete main)
Параметр Endianness формата : Big
Идентификатор кодека : A_AC3
Продолжительность : 1 ч. 6 м.
Вид битрейта : Постоянный
Битрейт : 192 Кбит/сек
Каналы : 2 канала
Расположение каналов : Front: L R
Частота : 48,0 КГц
Метод сжатия : С потерями
Размер потока : 91,0 Мбайт (8%)
Заголовок : музыка
Язык : Russian
Default : Да
Forced : Нет





   Похожие торренты   Торрент   Размер 
В этой теме нет новых непрочитанных сообщений. Человек с киноаппаратом. Квадрология (1924-1934) BDRip 720p by msltel

24 | 9

6.89 ГБ

В этой теме нет новых непрочитанных сообщений. Человек с киноаппаратом. Квадрология (1924-1934) BDRip 1080p by msltel

12 | 9

16.43 ГБ

В этой теме нет новых непрочитанных сообщений. Человек с киноаппаратом [US Transfer] (1929) BDRip 1080p от HDLine

12 | 5

4.37 ГБ

В этой теме нет новых непрочитанных сообщений. Человек с киноаппаратом (1929) DVDRip-AVC

117 | 48

1.36 ГБ

В этой теме нет новых непрочитанных сообщений. Человек с киноаппаратом [US Transfer] (1929) Blu-ray 1080p

11 | 5

43.53 ГБ

В этой теме нет новых непрочитанных сообщений. Последний человек / Der Letzte Mann (1924) DVD9

2 | 1

7.36 ГБ

В этой теме нет новых непрочитанных сообщений. Человек, который слишком много знал / The Man Who Knew Too Much (1934) BDRip от HQCLUB

2 | 5

1.45 ГБ




Вы не можете начинать темы
Вы не можете отвечать на сообщения
Вы не можете редактировать свои сообщения
Вы не можете удалять свои сообщения
Вы не можете добавлять вложения

Перейти:  
Для Мосгорсуда, Роскомнадзора и рекламодателей: mosgorsud-torrent[собачка]yandex.ru
 Вход
ppkBB3cker v.2 © 2008-2014 @ PPK
[ Time : 0.560s | 16 Queries | GZIP : Off ]

Торрент трекер RUTOR.IN, Не можете зайти на rutor.org? Какой новый адрес рутор? Какое зеркало рутор? Не работает rutor.org и зеркала? Тогда наш торрент специально для вас. Rutor.in неофициальное зеркало rutor. В случае если у Вас заблокирован rutor или вдруг Вы не можете на него зайти, то Вы без труда сможете скачать бесплатно и без рекламы последние новинки кино, игр, сериалов и прочего у нас, на Rutor.in. Не нужно использовать прокси, чтобы зайти на рутор, достаточно воспользоваться нашим ресурсом. Все новые фильмы, игры, сериалы, книги и музыка за 2013 и 2014 годы через торрент бесплатно. Скачивайте фильмы в хорошем качестве, игры для пк, xbox, playstation без регистрации. У нас вы найдете новые Зарубежные сериалы и Русские сериалы 2013, 2014, 2015 годов. Оставайтесь с нами, качайте любимые фильмы, игры, сериалы, книги и музыку.
cron