img image001 image001 image001 image001 image001 image001 image001 image001 image001 image001 image001 image001 image001 image001 image001

Planets Sun Sun Sun
Статистика раздачи
Автор: Nickolas3434 | Размер: 5.16 ГБ | Добавлен: 21 сен 2015
Раздают: 194    Качают: 110
Скачать торрент
Скачать торрент
Описание торрента

СообщениеДобавлено: 21 сен 2015 

Информация о фильме
Название: Королевство обезьян
Оригинальное название: Monkey Kingdom
Год выхода: 2015
Жанр: документальный
Режиссер: Марк Линфилд, Аластер Фовергилл
В ролях: Тина Фей
О фильме:
Документальный фильм о природе, который показывает, как новорождённая обезьянка и её мать пытаются выжить в раздираемой конкуренцией социальной иерархии Храма — действующей группировки обезьян, живущих в древних руинах в дебрях легендарных джунглей Южной Азии.

Страна: США
Студия: Disneynature
Продолжительность: 01:20:44
Перевод: Профессиональный (дублированный) Blu-ray EUR
Релиз:
Файл
Формат: Matroska
Источник: Monkey.Kingdom.2015.COMPLETE.BLURAY-LAZERS
Видео: 1280x692 (OAR) at 23.976 fps, x264@L4.1, CRF16, ~6548 kbps avg
Aудио#1: Russian: 48 kHz, AC3, 3/2 (L,C,R,l,r) + LFE ch, ~640.00 kbps avg |Дубляж, Blu-ray EUR|
Aудио#2: English: 48 kHz, DTS, 3/2 (L,C,R,l,r) + LFE ch, ~1536.00 kbps avg
Aудио#3: English: 48 kHz, AC3, 2/0 (L,R) ch, ~320.00 kbps avg |Descrіptіve|
Субтитры: Russian (iTunes), Ukrainian (iTunes), English (iTunes, SDH)
Общее
Уникальный идентификатор : 191563261219446866923685316672385954140 (0x901DBDFA714DB5EB9C777AD3C503B15C)
Полное имя : Monkey.Kingdom.2015.720p.BluRay.Rus.2xEng.HDCLUB.mkv
Формат : Matroska
Версия формата : Version 2
Размер файла : 5,16 Гбайт
Продолжительность : 1 ч. 20 м.
Общий поток : 9140 Кбит/сек
Название фильма : Monkey Kingdom (2015) - Release for HDCLUB
Дата кодирования : UTC 2015-09-20 09:57:16
Программа кодирования : mkvmerge v3.4.0 ('Rapunzel') built on May 15 2010 09:38:20
Библиотека кодирования : libebml v0.8.0 + libmatroska v0.9.0
Видео
Идентификатор : 1
Формат : AVC
Формат/Информация : Advanced Video Codec
Профиль формата : High@L4.1
Параметр CABAC формата : Да
Параметр ReFrames формата : 9 кадров
Идентификатор кодека : V_MPEG4/ISO/AVC
Продолжительность : 1 ч. 20 м.
Битрейт : 6489 Кбит/сек
Ширина : 1280 пикселей
Высота : 692 пикселя
Соотношение сторон : 1,85:1
Режим частоты кадров : Постоянный
Частота кадров : 23,976 кадра/сек
Цветовое пространство : YUV
Субдискретизация насыщенности : 4:2:0
Битовая глубина : 8 бит
Тип развёртки : Прогрессивная
Бит/(Пиксели*Кадры) : 0.306
Размер потока : 3,67 Гбайт (71%)
Заголовок : Monkey Kingdom (2015) - Release for HDCLUB
Библиотека кодирования : x264 core 148 r2579+50 65f745f t_mod_Custom [8-bit@all X86_64]
Настройки программы : cabac=1 / ref=9 / deblock=1:-3:-3 / analyse=0x3:0x133 / me=umh / subme=10 / psy=1 / fade_compensate=0.00 / psy_rd=1.05:0.00 / mixed_ref=1 / me_range=32 / chroma_me=1 / trellis=2 / 8x8dct=1 / cqm=0 / deadzone=21,11 / fast_pskip=0 / chroma_qp_offset=-2 / threads=6 / lookahead_threads=1 / sliced_threads=0 / nr=0 / decimate=0 / interlaced=0 / bluray_compat=0 / constrained_intra=0 / fgo=0 / bframes=8 / b_pyramid=2 / b_adapt=2 / b_bias=0 / direct=3 / weightb=1 / open_gop=0 / weightp=2 / keyint=250 / keyint_min=23 / scenecut=40 / intra_refresh=0 / rc_lookahead=60 / rc=crf / mbtree=0 / crf=16.0000 / qcomp=0.60 / qpmin=0:0:0 / qpmax=69:69:69 / qpstep=4 / vbv_maxrate=62500 / vbv_bufsize=78125 / crf_max=0.0 / nal_hrd=none / filler=0 / ip_ratio=1.20 / pb_ratio=1.10 / aq=1:1.00 / aq-sensitivity=10.00 / aq-factor=1.00:1.00:1.00 / aq2=0 / aq3=0 / zones=0,500,crf=12/35077,35776,crf=12/38190,38349,crf=12/38627,38901,crf=12/54075,54143,crf=12/58155,58301,crf=12/59435,59703,crf=12/65525,67050,crf=12/91211,91707,crf=12/92021,92071,crf=12/92148,92247,crf=12/93746,93840,crf=12
Язык : English
Default : Да
Forced : Нет
Аудио #1
Идентификатор : 2
Формат : AC-3
Формат/Информация : Audio Coding 3
Расширение режима : CM (complete main)
Параметр Endianness формата : Big
Идентификатор кодека : A_AC3
Продолжительность : 1 ч. 20 м.
Вид битрейта : Постоянный
Битрейт : 640 Кбит/сек
Каналы : 6 каналов
Расположение каналов : Front: L C R, Side: L R, LFE
Частота : 48,0 КГц
Метод сжатия : С потерями
Размер потока : 370 Мбайт (7%)
Заголовок : AC3 5.1 @ 640 kbps - DUB, Blu-ray EUR
Язык : Russian
Default : Да
Forced : Нет
Аудио #2
Идентификатор : 3
Формат : DTS
Формат/Информация : Digital Theater Systems
Режим : 16
Параметр Endianness формата : Big
Идентификатор кодека : A_DTS
Продолжительность : 1 ч. 20 м.
Вид битрейта : Постоянный
Битрейт : 1509 Кбит/сек
Каналы : 6 каналов
Расположение каналов : Front: L C R, Side: L R, LFE
Частота : 48,0 КГц
Битовая глубина : 24 бит
Метод сжатия : С потерями
Размер потока : 873 Мбайт (17%)
Заголовок : DTS 5.1 @ 1536 kbps
Язык : English
Default : Нет
Forced : Нет
Аудио #3
Идентификатор : 4
Формат : AC-3
Формат/Информация : Audio Coding 3
Профиль формата : Dolby Digital
Расширение режима : CM (complete main)
Параметр Endianness формата : Big
Идентификатор кодека : A_AC3
Продолжительность : 1 ч. 20 м.
Вид битрейта : Постоянный
Битрейт : 320 Кбит/сек
Каналы : 2 канала
Расположение каналов : Front: L R
Частота : 48,0 КГц
Метод сжатия : С потерями
Размер потока : 185 Мбайт (4%)
Заголовок : AC3 2.0 @ 320 kbps - Deive
Язык : English
Default : Нет
Forced : Нет
Текст #1
Идентификатор : 5
Формат : UTF-8
Идентификатор кодека : S_TEXT/UTF8
Идентификатор кодека/Информация : UTF-8 Plain Text
Заголовок : iTunes
Язык : Russian
Default : Нет
Forced : Нет
Текст #2
Идентификатор : 6
Формат : UTF-8
Идентификатор кодека : S_TEXT/UTF8
Идентификатор кодека/Информация : UTF-8 Plain Text
Заголовок : iTunes
Язык : Ukrainian
Default : Нет
Forced : Нет
Текст #3
Идентификатор : 7
Формат : UTF-8
Идентификатор кодека : S_TEXT/UTF8
Идентификатор кодека/Информация : UTF-8 Plain Text
Заголовок : iTunes, SDH
Язык : English
Default : Нет
Forced : Нет
Меню
00:00:00.000 : en:The Monkeys
00:06:52.037 : en:Inhabitants of Castle Rock
00:09:31.946 : en:Morning Adventures
00:16:18.060 : en:Courtship Season
00:24:23.003 : en:Monsoons and Termites
00:29:45.701 : en:Kip Explores
00:31:50.826 : en:The Lily Pond
00:37:37.589 : en:Maya's Search
00:41:30.154 : en:The House Raid
00:46:28.953 : en:Kumar's Return
00:50:51.548 : en:Invaders
00:55:42.422 : en:A Visit to the City
01:06:12.552 : en:Home Again
01:16:21.827 : en:End Credits



   Похожие торренты   Торрент   Размер 
В этой теме нет новых непрочитанных сообщений. Королевство обезьян / Monkey Kingdom (2015) BDRip-AVC от ExKinoRay | Лицензия

146 | 16

1.66 ГБ

В этой теме нет новых непрочитанных сообщений. Королевство обезьян / Monkey Kingdom (2015) BDRip 1080p от NNNB | Лицензия

181 | 73

7.76 ГБ

В этой теме нет новых непрочитанных сообщений. Королевство обезьян / Monkey Kingdom (2015) BDRip 720p

186 | 34

2.91 ГБ

В этой теме нет новых непрочитанных сообщений. Королевство полной луны / Moonrise Kingdom (2012) Blu-ray 1080p от HDCLUB и Youtracker | лицензия

3 | 2

27.9 ГБ

В этой теме нет новых непрочитанных сообщений. Королевство обезьян: Брат на брата / Wild Kingdom Of The Apes (2014) HDTVRip от Deadmauvlad | D

62 | 6

698.45 МБ

В этой теме нет новых непрочитанных сообщений. Королевство обезьян: Брат на брата / Wild Kingdom Of The Apes (2014) HDTV 1080i от Deadmauvlad | D

161 | 20

1.56 ГБ

В этой теме нет новых непрочитанных сообщений. Королевство полной луны / Moonrise Kingdom (2012) BDRip 720p от Leonardo and Scarabey | Лицензия

459 | 35

3.88 ГБ




Вы не можете начинать темы
Вы не можете отвечать на сообщения
Вы не можете редактировать свои сообщения
Вы не можете удалять свои сообщения
Вы не можете добавлять вложения

Перейти:  
Для Мосгорсуда, Роскомнадзора и рекламодателей: mosgorsud-torrent[собачка]yandex.ru
 Вход
ppkBB3cker v.2 © 2008-2014 @ PPK
[ Time : 0.520s | 15 Queries | GZIP : Off ]

Торрент трекер RUTOR.IN, Не можете зайти на rutor.org? Какой новый адрес рутор? Какое зеркало рутор? Не работает rutor.org и зеркала? Тогда наш торрент специально для вас. Rutor.in неофициальное зеркало rutor. В случае если у Вас заблокирован rutor или вдруг Вы не можете на него зайти, то Вы без труда сможете скачать бесплатно и без рекламы последние новинки кино, игр, сериалов и прочего у нас, на Rutor.in. Не нужно использовать прокси, чтобы зайти на рутор, достаточно воспользоваться нашим ресурсом. Все новые фильмы, игры, сериалы, книги и музыка за 2013 и 2014 годы через торрент бесплатно. Скачивайте фильмы в хорошем качестве, игры для пк, xbox, playstation без регистрации. У нас вы найдете новые Зарубежные сериалы и Русские сериалы 2013, 2014, 2015 годов. Оставайтесь с нами, качайте любимые фильмы, игры, сериалы, книги и музыку.