img image001 image001 image001 image001 image001 image001 image001 image001 image001 image001 image001 image001 image001 image001 image001

Planets Sun Sun Sun
Статистика раздачи
Автор: Nickolas3434 | Размер: 7.75 ГБ | Добавлен: 27 сен 2015
Раздают: 180    Качают: 50
Скачать торрент
Скачать торрент
Описание торрента

СообщениеДобавлено: 27 сен 2015 

Африканские кошки: Королевство смелых / African Cats

Русское название: Африканские кошки: Королевство смелых
Оригинальное название: African Cats
Год выпуска: 2011
Жанр: документальный, приключения
Выпущено: США
Режиссер: Аластер Фовергилл, Кит Шолей
В ролях: Сэмюэл Л. Джексон , Патрик Стюарт
Перевод: Дублированный

Сюжет фильма:
Станьте свидетелем невероятных приключений двух семей, стремящихся сделать своим домом одно из самых опасных мест на Земле. Вы столкнётесь лицом к лицу с этими величественными царями саванны и их настоящей жизнью, любовью и решимостью.

Качество: BDRip 1080p
Формат: AVC (библиотека кодирования x.264)
Контейнер (Расширение): MKV
Видео: 1920x1080, 11135 Кбит/сек, 23,976 кадр/сек, 0,224 Бит/[Пиксели*Кадры]
Аудио №1: русский / AC3 / 5.1 / 48 kHz / 640 kbps / |Дублированный|
Аудио №2: английский / AC3 / 5.1 / 48 kHz / 640 kbps /
Субтитры: русские
Навигация по главам(Чаптеры): есть
Продолжительность: 01:29:24
Автор рипа: Сообщество:

Format : Matroska
Format version : Version 2
File size : 7.75 GiB
Duration : 1h 29mn
Overall bit rate : 12.4 Mbps
Movie name : African Cats.(2011).BDRip.1080p.[denis100]
Encoded date : UTC 2015-09-26 08:45:53
Writing application : mkvmerge v5.8.0 ('No Sleep / Pillow') built on Sep 2 2012 15:37:04
Writing library : libebml v1.2.3 + libmatroska v1.3.0
Video
ID : 1
Format : AVC
Format/Info : Advanced Video Codec
Format profile : High@L4.1
Format settings, CABAC : Yes
Format settings, ReFrames : 4 frames
Codec ID : V_MPEG4/ISO/AVC
Duration : 1h 29mn
Bit rate : 11.1 Mbps
Width : 1 920 pixels
Height : 1 080 pixels
Display aspect ratio : 16:9
Frame rate : 23.976 fps
Color space : YUV
Chroma subsampling : 4:2:0
Bit depth : 8 bits
Scan type : Progressive
Bits/(Pixel*Frame) : 0.224
Stream size : 6.79 GiB (88%)
Title : African Cats.(2011).BDRip.1080p.[denis100]
Writing library : x264 core 148 r2597 e86f3a1
Encoding settings : cabac=1 / ref=4 / deblock=1:-3:-3 / analyse=0x3:0x133 / me=umh / subme=11 / psy=1 / psy_rd=1.00:0.00 / mixed_ref=1 / me_range=32 / chroma_me=1 / trellis=2 / 8x8dct=1 / cqm=0 / deadzone=21,11 / fast_pskip=0 / chroma_qp_offset=-2 / threads=6 / lookahead_threads=1 / sliced_threads=0 / nr=0 / decimate=1 / interlaced=0 / bluray_compat=0 / constrained_intra=0 / bframes=8 / b_pyramid=2 / b_adapt=2 / b_bias=0 / direct=1 / weightb=1 / open_gop=0 / weightp=2 / keyint=240 / keyint_min=23 / scenecut=40 / intra_refresh=0 / rc=2pass / mbtree=0 / bitrate=11135 / ratetol=1.0 / qcomp=0.60 / qpmin=0 / qpmax=69 / qpstep=4 / cplxblur=20.0 / qblur=0.5 / ip_ratio=1.40 / pb_ratio=1.30 / aq=1:1.00
Language : English
Default : Yes
Forced : No
Audio #1
ID : 2
Format : AC-3
Format/Info : Audio Coding 3
Mode extension : CM (complete main)
Codec ID : A_AC3
Duration : 1h 29mn
Bit rate mode : Constant
Bit rate : 640 Kbps
Channel(s) : 6 channels
Channel positions : Front: L C R, Side: L R, LFE
Sampling rate : 48.0 KHz
Bit depth : 16 bits
Compression mode : Lossy
Stream size : 409 MiB (5%)
Title : Дублированный
Language : Russian
Default : Yes
Forced : No
Audio #2
ID : 3
Format : AC-3
Format/Info : Audio Coding 3
Mode extension : CM (complete main)
Codec ID : A_AC3
Duration : 1h 29mn
Bit rate mode : Constant
Bit rate : 640 Kbps
Channel(s) : 6 channels
Channel positions : Front: L C R, Side: L R, LFE
Sampling rate : 48.0 KHz
Bit depth : 16 bits
Compression mode : Lossy
Stream size : 409 MiB (5%)
Language : English
Default : No
Forced : No
Text
ID : 4
Format : UTF-8
Codec ID : S_TEXT/UTF8
Codec ID/Info : UTF-8 Plain Text
Language : Russian
Default : No
Forced : No
Menu
00:00:00.000 : en:00:00:00.000
00:04:52.918 : en:00:04:52.918
00:08:54.159 : en:00:08:54.159
00:12:56.317 : en:00:12:56.317
00:19:59.573 : en:00:19:59.573
00:33:13.700 : en:00:33:13.700
00:41:49.841 : en:00:41:49.841
00:52:05.039 : en:00:52:05.039
00:59:15.552 : en:00:59:15.552
01:02:44.260 : en:01:02:44.260
01:14:56.659 : en:01:14:56.659
01:23:25.792 : en:01:23:25.792



   Похожие торренты   Торрент   Размер 
В этой теме нет новых непрочитанных сообщений. Африканские кошки: Королевство смелости / African Cats (2011) BDRip 1080p от Xixidok

1 | 2

7.49 ГБ

В этой теме нет новых непрочитанных сообщений. Африканские кошки: Королевство смелости / DisneyNature: African Cats (2011) BDRip 1080p от qzqz72

1 | 5

4.65 ГБ

В этой теме нет новых непрочитанных сообщений. Африканские кошки: Королевство смелости / African Cats (2011) BDRip от Xixidok

3 | 1

699.29 МБ

В этой теме нет новых непрочитанных сообщений. Африканские кошки: Королевство смелости / African Cats (2011) BDRip-AVC от Xixidok

3 | 1

1.58 ГБ

В этой теме нет новых непрочитанных сообщений. Африканские кошки: Королевство смелости / African Cats (2011) BDRip | Дубляж

8 | 1

1.37 ГБ

В этой теме нет новых непрочитанных сообщений. Африканские кошки: Королевство смелости / African Cats (2011) BDRip от New-Team | P1

13 | 2

747.1 МБ

В этой теме нет новых непрочитанных сообщений. Африканские кошки: Королевство смелости / African Cats (2011) BDRip-AVC от New-Team | P1

48 | 8

1.46 ГБ




Вы не можете начинать темы
Вы не можете отвечать на сообщения
Вы не можете редактировать свои сообщения
Вы не можете удалять свои сообщения
Вы не можете добавлять вложения

Перейти:  
Для Мосгорсуда, Роскомнадзора и рекламодателей: mosgorsud-torrent[собачка]yandex.ru
 Вход
ppkBB3cker v.2 © 2008-2014 @ PPK
[ Time : 0.037s | 15 Queries | GZIP : Off ]

Торрент трекер RUTOR.IN, Не можете зайти на rutor.org? Какой новый адрес рутор? Какое зеркало рутор? Не работает rutor.org и зеркала? Тогда наш торрент специально для вас. Rutor.in неофициальное зеркало rutor. В случае если у Вас заблокирован rutor или вдруг Вы не можете на него зайти, то Вы без труда сможете скачать бесплатно и без рекламы последние новинки кино, игр, сериалов и прочего у нас, на Rutor.in. Не нужно использовать прокси, чтобы зайти на рутор, достаточно воспользоваться нашим ресурсом. Все новые фильмы, игры, сериалы, книги и музыка за 2013 и 2014 годы через торрент бесплатно. Скачивайте фильмы в хорошем качестве, игры для пк, xbox, playstation без регистрации. У нас вы найдете новые Зарубежные сериалы и Русские сериалы 2013, 2014, 2015 годов. Оставайтесь с нами, качайте любимые фильмы, игры, сериалы, книги и музыку.