img image001 image001 image001 image001 image001 image001 image001 image001 image001 image001 image001 image001 image001 image001 image001

Planets Sun Sun Sun
Статистика раздачи
Автор: Nickolas3434 | Размер: 2.85 ГБ | Добавлен: 11 окт 2015
Раздают: 94    Качают: 22
Скачать торрент
Скачать торрент
Описание торрента

СообщениеДобавлено: 11 окт 2015 



Информация о фильме
Название: Беларусь XXI
Год выхода: 2015
Жанр: Хроникально-документальный
Продолжительность: от 00:17:00 до 00:25:00
Количество серий: 10
Режиссер: Иван Эйсмонт

О фильме:
"Беларусь XXI" - это цикл хроникально-документальных фильмов, рассказывающих о том, как изменилась страна за два десятилетия суверенной истории.

Серии проекта будут выстроены в хронологическом порядке. Как заявляют авторы нового цикла, "Беларусь XXI" - это попытка вспомнить, какой была страна в 90-е годы, с каких позиций пришлось стартовать молодому государству. Проект в большей степени построен на визуальном восприятии, а потому в фильмах будет представлено много архивного видео.

В первых сериях - Беларусь на изломе столетий, тысячелетий и эпох. Первые шаги нашей страны как независимого государства: развал экономики, дефицит, галопирующая инфляция. Как выживало большинство, пока наживались единицы? 1994-й год. Поворотный пункт в новейшей истории: выборы президента. 1995-й и 1996-й. Становление молодой независимой Беларуси: новые государственные символы и устройства, провал первой попытки "цветной" революции, многовекторность - как внешнеполитический выбор. Годы и мгновения до нулевых - обо всем этом и не только в документальном цикле "Беларусь XXI".

Сегодня уже и не верится, что когда-то были времена пустых полок, тотального дефицита и километровых очередей за едой и одеждой. Что вместо денег были купоны, да и сами деньги напоминали скорее билет в зоопарк (белочки и зайчики). Много воды утекло с тех времен, многое поменялось. Страна уже совсем другая.

Над циклом серий работает творческая группа журналистов АТН. Руководитель проекта - Иван Эйсмонт. Продюсер - Марат Марков.

Проект "Беларусь XXI" выходит по воскресеньям на телеканалах "Беларусь 1" и "Беларусь 24" в рамках программы "Главный эфир".

Код:
Беларусь XXI (01) 02.08.2015.mp4
Беларусь XXI (02) 09.08.2015.mp4
Беларусь XXI (03) 16.08.2015.mp4
Беларусь XXI (04) 23.08.2015.mp4
Беларусь XXI (05) 30.08.2015.mp4
Беларусь XXI (06) 06.09.2015.mp4
Беларусь XXI (07) 13.09.2015.mp4
Беларусь XXI (08) 20.09.2015.mp4
Беларусь XXI (09) 27.09.2015.mp4
Беларусь XXI (10) 04.10.2015.mp4



Страна: Республика Беларусь
Студия: Белтелерадиокомпания
Продолжительность: 00:17:00
Перевод: Не требует

Файл
Кодек: AVC (H264)
Качество: TVRip-AVC
Видео: MPEG4 Video (H264) 640x480 25fps 1638kbps
Звук: AAC 44100Hz stereo 97kbps

Код:
General
Complete name                  : D:Новая  земля 201 Документальный фильмыПутешествиеБеларусь XXI (2015)Беларусь XXIБеларусь XXI (09) 27.09.2015.mp4
Format                         : MPEG-4
Format profile                 : Base Media
Codec ID                       : isom
File size                      : 313 MiB
Duration                       : 25mn 7s
Overall bit rate mode          : Variable
Overall bit rate               : 1 744 Kbps
Writing application            : Lavf54.63.104

Video
ID                             : 1
Format                         : AVC
Format/Info                    : Advanced Video Codec
Format profile                 : Main@L3.0
Format settings, CABAC         : Yes
Format settings, ReFrames      : 1 frame
Codec ID                       : avc1
Codec ID/Info                  : Advanced Video Coding
Duration                       : 25mn 7s
Bit rate                       : 1 632 Kbps
Width                          : 640 pixels
Height                         : 480 pixels
Display aspect ratio           : 4:3
Frame rate mode                : Constant
Frame rate                     : 25.000 fps
Color space                    : YUV
Chroma subsampling             : 4:2:0
Bit depth                      : 8 bits
Scan type                      : Progressive
Bits/(Pixel*Frame)             : 0.213
Stream size                    : 295 MiB (94%)
Writing library                : x264 core 129
Encoding settings              : cabac=1 / ref=1 / deblock=1:0:0 / analyse=0x1:0x131 / me=dia / subme=2 / psy=1 / psy_rd=1.00:0.00 / mixed_ref=0 / me_range=16 / chroma_me=1 / trellis=0 / 8x8dct=0 / cqm=0 / deadzone=21,11 / fast_pskip=1 / chroma_qp_offset=0 / threads=8 / lookahead_threads=1 / sliced_threads=0 / nr=0 / decimate=1 / interlaced=0 / bluray_compat=0 / constrained_intra=0 / bframes=0 / weightp=2 / keyint=250 / keyint_min=25 / scenecut=40 / intra_refresh=0 / rc_lookahead=40 / rc=abr / mbtree=1 / bitrate=1632 / ratetol=1.0 / qcomp=0.60 / qpmin=10 / qpmax=51 / qpstep=4 / ip_ratio=1.41 / aq=1:1.00

Audio
ID                             : 2
Format                         : AAC
Format/Info                    : Advanced Audio Codec
Format profile                 : LC
Codec ID                       : 40
Duration                       : 25mn 7s
Duration_FirstFrame            : 70ms
Bit rate mode                  : Variable
Bit rate                       : 96.0 Kbps
Maximum bit rate               : 176 Kbps
Channel(s)                     : 2 channels
Channel positions              : Front: L R
Sampling rate                  : 44.1 KHz
Compression mode               : Lossy
Stream size                    : 17.2 MiB (5%)

Семпл




   Похожие торренты   Торрент   Размер 
В этой теме нет новых непрочитанных сообщений. Концерт - День защитников Отечества. 95 лет Вооруженным Силам Республики Беларусь (2013) TVRip от AND03AND

3 | 2

1.41 ГБ

В этой теме нет новых непрочитанных сообщений. Я шагаю по стране [8 серий из 8] (2015) DVB от AND03AND

7 | 95

8.67 ГБ

В этой теме нет новых непрочитанных сообщений. Революции XXI века [4 серий из 4] (2015) DVB от AND03AND

154 | 72

3.72 ГБ

В этой теме нет новых непрочитанных сообщений. Заслуженный любительский коллектив Республики Беларусь ансамбль песни и танца Спадчына (Наследие) Молодечно (2015) DVB от AND03AND

2 | 4

769.18 МБ

В этой теме нет новых непрочитанных сообщений. Заповедной тропой (Беларусь) (2005) SATRip от AND03AND

60 | 16

1.61 ГБ

В этой теме нет новых непрочитанных сообщений. Браславщина. Край Божьей опеки (Беларусь) (2009) SATRip от AND03AND

55 | 10

324.08 МБ

В этой теме нет новых непрочитанных сообщений. День защитников Отечества и Вооруженных Сил Республики Беларусь (2016) DVB от AND03AND

3 | 7

1.97 ГБ




Вы не можете начинать темы
Вы не можете отвечать на сообщения
Вы не можете редактировать свои сообщения
Вы не можете удалять свои сообщения
Вы не можете добавлять вложения

Перейти:  
Для Мосгорсуда, Роскомнадзора и рекламодателей: mosgorsud-torrent[собачка]yandex.ru
 Вход
ppkBB3cker v.2 © 2008-2014 @ PPK
[ Time : 0.040s | 14 Queries | GZIP : Off ]

Торрент трекер RUTOR.IN, Не можете зайти на rutor.org? Какой новый адрес рутор? Какое зеркало рутор? Не работает rutor.org и зеркала? Тогда наш торрент специально для вас. Rutor.in неофициальное зеркало rutor. В случае если у Вас заблокирован rutor или вдруг Вы не можете на него зайти, то Вы без труда сможете скачать бесплатно и без рекламы последние новинки кино, игр, сериалов и прочего у нас, на Rutor.in. Не нужно использовать прокси, чтобы зайти на рутор, достаточно воспользоваться нашим ресурсом. Все новые фильмы, игры, сериалы, книги и музыка за 2013 и 2014 годы через торрент бесплатно. Скачивайте фильмы в хорошем качестве, игры для пк, xbox, playstation без регистрации. У нас вы найдете новые Зарубежные сериалы и Русские сериалы 2013, 2014, 2015 годов. Оставайтесь с нами, качайте любимые фильмы, игры, сериалы, книги и музыку.