img image001 image001 image001 image001 image001 image001 image001 image001 image001 image001 image001 image001 image001 image001 image001

Planets Sun Sun Sun
Статистика раздачи
Автор: Nickolas3434 | Размер: 744.08 МБ | Добавлен: 18 окт 2015
Раздают: 105    Качают: 33
Скачать торрент
Скачать торрент
Описание торрента

СообщениеДобавлено: 18 окт 2015 


Информация о фильме
Название: Жизнь после людей
Оригинальное название: Life After People
Год выхода: 2008
Жанр: Документальный, фантастика
Режиссер: Дэвид Де Фриз / David de Vries
В ролях: Струан Роджер, Джон Андерсон, Дэвид Брин, Кевин Харрисон, Рон Чессер
О фильме: Научно-популярный фильм, в котором ученые рассуждают на тему того, что произойдет с планетой, животными и растениями, если человек исчезнет, а также о том, как долго после исчезновения человечества будут существовать созданные им памятники и артефакты. Данные фильм основан на результатах исследования территорий, внезапно покинутых людьми, а также возможных последствий прекращения ухода за зданиями и городской инфраструктурой. Гипотеза о покинутом мире иллюстрирована цифровыми изображениями, показывающими последующую участь таких архитектурных шедевров, как Эмпайр-Стейт-Билдинг, Букингемский дворец, Сирс-Тауэр, Спейс Нидл, мост Золотые ворота и Эйфелева башня...

Страна: США
Студия: Flight 33 Productions
Продолжительность: 01:25:06
Перевод: Профессиональный (одноголосый)
Файл
Формат: avi
Качество: HDRip (BDRip.720p)
Видео: XviD, 656x368, 25fps, 1085kbps
Аудио: MPEG Layer 3, 2ch, 48000Hz, 128kbps

General
Complete name : Zhizn.Posle.Ludei.2008.P1.HDRip.700.CurHaJI.avi
Format : AVI
Format/Info : Audio Video Interleave
File size : 744 MiB
Duration : 1h 25mn
Overall bit rate : 1 222 Kbps
Movie name : Zhizn.Posle.Ludei.2008.P1.HDRip.700.CurHaJI
Writing application : VirtualDubMod 1.5.10.3 | www.virtualdub-fr.org || (build 2550/release)
Writing library : VirtualDub build 35491/release
Video
ID : 0
Format : MPEG-4 Visual
Format profile : Advanced Simple@L5
Format settings, BVOP : 2
Format settings, QPel : No
Format settings, GMC : No warppoints
Format settings, Matrix : Custom
Codec ID : XVID
Codec ID/Hint : XviD
Duration : 1h 25mn
Bit rate : 1 085 Kbps
Width : 656 pixels
Height : 368 pixels
Display aspect ratio : 16:9
Frame rate : 25.000 fps
Color space : YUV
Chroma subsampling : 4:2:0
Bit depth : 8 bits
Scan type : Progressive
Compression mode : Lossy
Bits/(Pixel*Frame) : 0.180
Stream size : 660 MiB (89%)
Writing library : XviD 64
Audio
ID : 1
Format : MPEG Audio
Format version : Version 1
Format profile : Layer 3
Codec ID : 55
Codec ID/Hint : MP3
Duration : 1h 25mn
Bit rate mode : Constant
Bit rate : 128 Kbps
Channel(s) : 2 channels
Sampling rate : 48.0 KHz
Compression mode : Lossy
Stream size : 77.9 MiB (10%)
Alignment : Aligned on interleaves
Interleave, duration : 40 ms (1.00 video frame)
Interleave, preload duration : 504 ms
Writing library : L3.99r
Encoding settings : -m s -V 4 -q 2 -lowpass 17 -b 128



Релиз от:



   Похожие торренты   Торрент   Размер 
В этой теме нет новых непрочитанных сообщений. Жизнь после людей / Life After People (2008) BDRip от HQ-ViDEO

157 | 17

1.45 ГБ

В этой теме нет новых непрочитанных сообщений. Жизнь после людей / Life after people [01-10 из 10] (2009) DVDRip

5 | 2

5.87 ГБ

В этой теме нет новых непрочитанных сообщений. Жизнь после людей / Life After People [01-10 из 10] (2009) BDRip-AVC от KinoZalSat

184 | 7

8.05 ГБ

В этой теме нет новых непрочитанных сообщений. The History Channel: Будущее планеты: Жизнь после людей / Life After People [01-05 из 05] (2009) DVDRip-AVC от -=HD-NET=-

37 | 8

5.87 ГБ

В этой теме нет новых непрочитанных сообщений. Земля: Жизнь без людей / Aftermath: Population Zero (2008) DVDRip | P1

134 | 9

743.24 МБ

В этой теме нет новых непрочитанных сообщений. Водная жизнь / Water Life [01-26 из 26] (2008) HDRip от R.G.RealMT | A

7 | 8

11.79 ГБ

В этой теме нет новых непрочитанных сообщений. Земля: Жизнь без людей / Aftermath: Population Zero (2008) DVDRip by GENADIY

86 | 10

1.09 ГБ




Вы не можете начинать темы
Вы не можете отвечать на сообщения
Вы не можете редактировать свои сообщения
Вы не можете удалять свои сообщения
Вы не можете добавлять вложения

Перейти:  
Для Мосгорсуда, Роскомнадзора и рекламодателей: mosgorsud-torrent[собачка]yandex.ru
 Вход
ppkBB3cker v.2 © 2008-2014 @ PPK
[ Time : 0.039s | 15 Queries | GZIP : Off ]

cron