img image001 image001 image001 image001 image001 image001 image001 image001 image001 image001 image001 image001 image001 image001 image001

Planets Sun Sun Sun
Статистика раздачи
Автор: Nickolas3434 | Размер: 475.93 МБ | Добавлен: 20 окт 2015
Раздают: 13    Качают: 4
Скачать торрент
Скачать торрент
Описание торрента

СообщениеДобавлено: 20 окт 2015 


Информация о фильме
Название: Спасти и сохранить
Год выхода: 2010
Жанр: Документальный.
Режиссер: Александр Анисимов
О фильме:
Фильм в познавательной форме показывает мир растений и животных, которые находятся в различных заповедниках и национальных парках Республики Беларусь (Березинский биосферный заповедник, "Припятский" и "Беловежский" национальные парки). Разными путями попадают животные в ситуации, когда их вид оказывается на грани исчезновения. И задача людей — сохранить эти виды и популяции.
Запись потока *.ts с наземного цифрового телеканала "Беларусь 3", ремукс в *.mkv программой VideoReDo.

Страна: Республика Беларусь
Студия: Белорусский видеоцентр
Продолжительность: 00:26:22
Язык: Русский
Файл
Кодек: AVC (H264)
Качество: DVB
Видео: MPEG4 Video (H264) 720x576 (49:36) 25fps, 2 217 Kbps
Звук: MPEG Audio 48000Hz stereo 256kbps
Код:
General
Unique ID                      : 36478370528313158204328906304141695231 (0x1B717A8655D263D4E8A69D78223098FF)
Complete name                  : D:Новая  земля 201 Документальный фильмыПриродаСпасти и сохранитьСпасти и сохранить (2010).mkv
Format                         : Matroska
Format version                 : Version 2
File size                      : 476 MiB
Duration                       : 26mn 22s
Overall bit rate               : 2 524 Kbps
Writing application            : Lavf52.64.2
Writing library                : Lavf52.64.2
Video
ID                             : 1
Format                         : AVC
Format/Info                    : Advanced Video Codec
Format profile                 : Main@L3.0
Format settings, CABAC         : Yes
Format settings, ReFrames      : 4 frames
Format settings, GOP           : M=4, N=24
Codec ID                       : V_MPEG4/ISO/AVC
Duration                       : 26mn 22s
Bit rate                       : 2 217 Kbps
Width                          : 720 pixels
Height                         : 576 pixels
Display aspect ratio           : 4:3
Original display aspect ratio  : 4:3
Frame rate mode                : Constant
Frame rate                     : 25.000 fps
Standard                       : PAL
Color space                    : YUV
Chroma subsampling             : 4:2:0
Bit depth                      : 8 bits
Scan type                      : MBAFF
Scan order                     : Top Field First
Bits/(Pixel*Frame)             : 0.214
Stream size                    : 418 MiB (88%)
Default                        : Yes
Forced                         : No
Color primaries                : BT.601 PAL
Transfer characteristics       : BT.470 System B, BT.470 System G
Matrix coefficients            : BT.601
Color range                    : Limited
Audio
ID                             : 2
Format                         : MPEG Audio
Format version                 : Version 1
Format profile                 : Layer 2
Codec ID                       : A_MPEG/L2
Codec ID/Hint                  : MP2
Duration                       : 26mn 22s
Bit rate mode                  : Constant
Bit rate                       : 256 Kbps
Channel(s)                     : 2 channels
Sampling rate                  : 48.0 KHz
Compression mode               : Lossy
Stream size                    : 48.3 MiB (10%)
Language                       : English
Default                        : Yes
Forced                         : No




   Похожие торренты   Торрент   Размер 
В этой теме нет новых непрочитанных сообщений. Спасти и сохранить (2010) SATRip от AND01AND

0 | 1

450.01 МБ

В этой теме нет новых непрочитанных сообщений. Шугаев И.В. - Как сохранить семью (2011) PDF, DjVu, DOC

8 | 1

1.26 МБ

В этой теме нет новых непрочитанных сообщений. Шугаев Илья - Как сохранить семью (2012) MP3

11 | 5

148.48 МБ

В этой теме нет новых непрочитанных сообщений. Сохранить город / Ocalić miasto (1976) TVRip от Hi-Films

1 | 3

1.15 ГБ

В этой теме нет новых непрочитанных сообщений. Как сохранить зрение ребенка: 10 простых комплексов (2009) DVDRip

1 | 18

643.71 МБ

В этой теме нет новых непрочитанных сообщений. Алексей Косарев - Как гарантированно похудеть и сохранить желаемый вес (2013) PDF

36 | 95

981.09 КБ

В этой теме нет новых непрочитанных сообщений. Бомба для Японии. Спасти Дальний Восток (2010) IPTVRip от Pshichko66

74 | 0

693.32 МБ




Вы не можете начинать темы
Вы не можете отвечать на сообщения
Вы не можете редактировать свои сообщения
Вы не можете удалять свои сообщения
Вы не можете добавлять вложения

Перейти:  
Для Мосгорсуда, Роскомнадзора и рекламодателей: mosgorsud-torrent[собачка]yandex.ru
 Вход
ppkBB3cker v.2 © 2008-2014 @ PPK
[ Time : 0.050s | 14 Queries | GZIP : Off ]

Торрент трекер RUTOR.IN, Не можете зайти на rutor.org? Какой новый адрес рутор? Какое зеркало рутор? Не работает rutor.org и зеркала? Тогда наш торрент специально для вас. Rutor.in неофициальное зеркало rutor. В случае если у Вас заблокирован rutor или вдруг Вы не можете на него зайти, то Вы без труда сможете скачать бесплатно и без рекламы последние новинки кино, игр, сериалов и прочего у нас, на Rutor.in. Не нужно использовать прокси, чтобы зайти на рутор, достаточно воспользоваться нашим ресурсом. Все новые фильмы, игры, сериалы, книги и музыка за 2013 и 2014 годы через торрент бесплатно. Скачивайте фильмы в хорошем качестве, игры для пк, xbox, playstation без регистрации. У нас вы найдете новые Зарубежные сериалы и Русские сериалы 2013, 2014, 2015 годов. Оставайтесь с нами, качайте любимые фильмы, игры, сериалы, книги и музыку.