img image001 image001 image001 image001 image001 image001 image001 image001 image001 image001 image001 image001 image001 image001 image001 image001

Planets Sun Sun Sun
Статистика раздачи
Автор: Nickolas3434 | Размер: 475.93 МБ | Добавлен: 19 окт 2015
Раздают: 13    Качают: 4
Скачать торрент
Скачать торрент
Описание торрента

СообщениеДобавлено: 19 окт 2015 


Информация о фильме
Название: Спасти и сохранить
Год выхода: 2010
Жанр: Документальный.
Режиссер: Александр Анисимов
О фильме:
Фильм в познавательной форме показывает мир растений и животных, которые находятся в различных заповедниках и национальных парках Республики Беларусь (Березинский биосферный заповедник, "Припятский" и "Беловежский" национальные парки). Разными путями попадают животные в ситуации, когда их вид оказывается на грани исчезновения. И задача людей — сохранить эти виды и популяции.
Запись потока *.ts с наземного цифрового телеканала "Беларусь 3", ремукс в *.mkv программой VideoReDo.

Страна: Республика Беларусь
Студия: Белорусский видеоцентр
Продолжительность: 00:26:22
Язык: Русский
Файл
Кодек: AVC (H264)
Качество: DVB
Видео: MPEG4 Video (H264) 720x576 (49:36) 25fps, 2 217 Kbps
Звук: MPEG Audio 48000Hz stereo 256kbps
Код:
General
Unique ID                      : 36478370528313158204328906304141695231 (0x1B717A8655D263D4E8A69D78223098FF)
Complete name                  : D:Новая  земля 201 Документальный фильмыПриродаСпасти и сохранитьСпасти и сохранить (2010).mkv
Format                         : Matroska
Format version                 : Version 2
File size                      : 476 MiB
Duration                       : 26mn 22s
Overall bit rate               : 2 524 Kbps
Writing application            : Lavf52.64.2
Writing library                : Lavf52.64.2
Video
ID                             : 1
Format                         : AVC
Format/Info                    : Advanced Video Codec
Format profile                 : Main@L3.0
Format settings, CABAC         : Yes
Format settings, ReFrames      : 4 frames
Format settings, GOP           : M=4, N=24
Codec ID                       : V_MPEG4/ISO/AVC
Duration                       : 26mn 22s
Bit rate                       : 2 217 Kbps
Width                          : 720 pixels
Height                         : 576 pixels
Display aspect ratio           : 4:3
Original display aspect ratio  : 4:3
Frame rate mode                : Constant
Frame rate                     : 25.000 fps
Standard                       : PAL
Color space                    : YUV
Chroma subsampling             : 4:2:0
Bit depth                      : 8 bits
Scan type                      : MBAFF
Scan order                     : Top Field First
Bits/(Pixel*Frame)             : 0.214
Stream size                    : 418 MiB (88%)
Default                        : Yes
Forced                         : No
Color primaries                : BT.601 PAL
Transfer characteristics       : BT.470 System B, BT.470 System G
Matrix coefficients            : BT.601
Color range                    : Limited
Audio
ID                             : 2
Format                         : MPEG Audio
Format version                 : Version 1
Format profile                 : Layer 2
Codec ID                       : A_MPEG/L2
Codec ID/Hint                  : MP2
Duration                       : 26mn 22s
Bit rate mode                  : Constant
Bit rate                       : 256 Kbps
Channel(s)                     : 2 channels
Sampling rate                  : 48.0 KHz
Compression mode               : Lossy
Stream size                    : 48.3 MiB (10%)
Language                       : English
Default                        : Yes
Forced                         : No




   Похожие торренты   Торрент   Размер 
В этой теме нет новых непрочитанных сообщений. Бомба для Японии. Спасти Дальний Восток (2010) IPTVRip от Pshichko66

74 | 0

693.32 МБ

В этой теме нет новых непрочитанных сообщений. Славянский базар 2010. Творческий вечер Раймонда Паулса (2010) DVB от AND03AND

1 | 2

1.35 ГБ

В этой теме нет новых непрочитанных сообщений. Славянский базар 2010. Мастера искусств Беларуси (2010) BD DVB от AND03AND

1 | 1

1.33 ГБ

В этой теме нет новых непрочитанных сообщений. Славянский базар 2010. Мастера искусств России - Дмитрий Хворостовский (2010) DVB от AND03AND

6 | 0

1.4 ГБ

В этой теме нет новых непрочитанных сообщений. Мечта о космосе (2010) DVB от AND03AND

19 | 3

624.24 МБ

В этой теме нет новых непрочитанных сообщений. Трамвай в Париж [01-02 из 02] (2010) DVB от AND03AND

1 | 0

2 ГБ

В этой теме нет новых непрочитанных сообщений. Мир - национальная жемчужина Беларуси (2010) DVB от AND03AND

11 | 3

301.28 МБ




Вы не можете начинать темы
Вы не можете отвечать на сообщения
Вы не можете редактировать свои сообщения
Вы не можете удалять свои сообщения
Вы не можете добавлять вложения

Перейти:  
 Вход
ppkBB3cker v.2 © 2008-2014 @ PPK
[ Time : 3.893s | 15 Queries | GZIP : Off ]

cron