img image001 image001 image001 image001 image001 image001 image001 image001 image001 image001 image001 image001 image001 image001 image001

Planets Sun Sun Sun
Статистика раздачи
Автор: Nickolas3434 | Размер: 743.24 МБ | Добавлен: 25 окт 2015
Раздают: 134    Качают: 9
Скачать торрент
Скачать торрент
Описание торрента

СообщениеДобавлено: 25 окт 2015 


Информация о фильме
Название: Земля: Жизнь без людей
Оригинальное название: Aftermath: Population Zero
Год выхода: 2008
Жанр: Документальный, фантастика
Режиссер: Кристофер Роули / Christopher Rowley
В ролях: Рег Э. Кэти
О фильме: Что бы случилось, если бы каждый человек на Земле просто исчез? Ушел. Не умер, просто ушел. Это — поразительная история мира, который мы никогда не будем видеть. Мир без людей, где городские улицы все еще населяются автомобилями, но без водителей. Никто не починит мосты, не отремонтирует здания или поддержит электростанции. Будучи управляемым человечеством на протяжении тысячелетий, природа восстанавливает землю. Но как бы это помогло? Как долго небоскребы, атомные электростанции, и наши дома протянули без нас???

Страна: США, Канада
Студия: Cream Productions
Продолжительность: 01:26:45
Перевод: Профессиональный (одноголосый)
Файл
Формат: avi
Качество: DVDRip (DVD5)
Видео: XviD, 640x352, 25fps, 1066kbps
Аудио: MPEG Layer 3, 2ch, 48000Hz, 128kbps

General
Complete name : Zhizn.Bez.Ludei.2008.P1.DVDRip.700.CurHaJI.avi
Format : AVI
Format/Info : Audio Video Interleave
File size : 743 MiB
Duration : 1h 26mn
Overall bit rate : 1 198 Kbps
Movie name : Zhizn.Bez.Ludei.2008.P1.DVDRip.700.CurHaJI
Writing application : VirtualDubMod 1.5.10.3 | www.virtualdub-fr.org || (build 2550/release)
Writing library : VirtualDub build 35491/release
Video
ID : 0
Format : MPEG-4 Visual
Format profile : Advanced Simple@L5
Format settings, BVOP : 2
Format settings, QPel : No
Format settings, GMC : No warppoints
Format settings, Matrix : Custom
Codec ID : XVID
Codec ID/Hint : XviD
Duration : 1h 26mn
Bit rate : 1 060 Kbps
Width : 640 pixels
Height : 352 pixels
Display aspect ratio : 16:9
Frame rate : 25.000 fps
Color space : YUV
Chroma subsampling : 4:2:0
Bit depth : 8 bits
Scan type : Progressive
Compression mode : Lossy
Bits/(Pixel*Frame) : 0.188
Stream size : 658 MiB (89%)
Writing library : XviD 64
Audio
ID : 1
Format : MPEG Audio
Format version : Version 1
Format profile : Layer 3
Codec ID : 55
Codec ID/Hint : MP3
Duration : 1h 26mn
Bit rate mode : Constant
Bit rate : 128 Kbps
Channel(s) : 2 channels
Sampling rate : 48.0 KHz
Compression mode : Lossy
Stream size : 79.4 MiB (11%)
Alignment : Aligned on interleaves
Interleave, duration : 40 ms (1.00 video frame)
Interleave, preload duration : 504 ms
Writing library : L3.99r
Encoding settings : -m s -V 4 -q 2 -lowpass 17 -b 128



Релиз от:



   Похожие торренты   Торрент   Размер 
В этой теме нет новых непрочитанных сообщений. Земля: Жизнь без людей / Aftermath: Population Zero (2008) DVDRip by GENADIY

86 | 10

1.09 ГБ

В этой теме нет новых непрочитанных сообщений. Последствия - Нулевое население / Aftermath: Population Zero (2008) HDTV

20 | 7

2.32 ГБ

В этой теме нет новых непрочитанных сообщений. Земля обетованная / Земля людей / Жеруйык / Жерұйық (2011) DVDRip от КинозалSAT

2 | 4

700.86 МБ

В этой теме нет новых непрочитанных сообщений. Земля обетованная / Земля людей / Жеруйык / Жерұйық (2011) DVDRip от КинозалSAT

24 | 10

1.37 ГБ

В этой теме нет новых непрочитанных сообщений. Последствия: Перенаселенная планета / Aftermath: Population overload (2010) SATRip

3 | 2

551.56 МБ

В этой теме нет новых непрочитанных сообщений. Жизнь после людей / Life After People (2008) HDRip | P1

105 | 33

744.08 МБ

В этой теме нет новых непрочитанных сообщений. Земля людей (2010) DVDRip | Лицензия

1 | 3

1.37 ГБ




Вы не можете начинать темы
Вы не можете отвечать на сообщения
Вы не можете редактировать свои сообщения
Вы не можете удалять свои сообщения
Вы не можете добавлять вложения

Перейти:  
Для Мосгорсуда, Роскомнадзора и рекламодателей: mosgorsud-torrent[собачка]yandex.ru
 Вход
ppkBB3cker v.2 © 2008-2014 @ PPK
[ Time : 0.043s | 15 Queries | GZIP : Off ]

cron