img image001 image001 image001 image001 image001 image001 image001 image001 image001 image001 image001 image001 image001 image001 image001

Planets Sun Sun Sun
Статистика раздачи
Автор: Nickolas3434 | Размер: 9.44 ГБ | Добавлен: 01 ноя 2015
Раздают: 20    Качают: 2
Скачать торрент
Скачать торрент
Описание торрента

СообщениеДобавлено: 01 ноя 2015 


Название: Кровь в вино
Оригинальное название: Blood Into Wine
Год выпуска: 2010
Страна: США
Жанр: документальный
Продолжительность: 01:39:42
Перевод: любительский двухголосый
Режиссёр: Райан Пейдж, Кристофер Померенк
В ролях: Гленн Александр, Тим Александр, Файруза Балк, Том Божур, Хью Чаппелль, Гэйл Дил, Кен Фостер, Тим Хайдекер
Описание: Фильм в деталях рассказывает историю вокалиста Tool и A Perfect Circle Мейнарда Джеймса Кинана, заинтересовавшегося виноделием, переехавшего в Аризону, начавшего выращивать там виноград и делать вино, несмотря на скептическое отношение окружающих. Каковы взаимоотношения между его музыкальной карьерой и виноделием? С какими трудностями пришлось столкнуться ему и его партнеру по бизнесу Эрику Гломски? Наконец, что даёт им виноделие, и каким образом вино помогает познать себя и окружающий мир?...

Качество: BDRip 1080p Сравнение с исходником
Формат: MKV
Видео: MPEG-4 AVC, 11.6 Mбит/с, 1920x1080, 23,976 кадра/с
Аудио 1: русский, AC3, 192 kbps, 2 ch, 48 kHz [любительский двухголосый, Jetvis studio]
Аудио 2: английский, DTS, 1509 kbps, 6 ch, 48 kHz [оригинал]
Общее
Уникальный идентификатор : 179028609101816585201977342853059936141 (0x86AFA7EA2F2D304DBC7DB960AD8B7F8D)
Полное имя : D:VideoКровь в вино.2010.BDRip.1080p.mkv
Формат : Matroska
Версия формата : Version 4 / Version 2
Размер файла : 9,44 Гбайт
Продолжительность : 1 ч. 39 м.
Общий поток : 13,6 Мбит/сек
Название фильма : BDRip -- STarankov
Дата кодирования : UTC 2015-10-30 06:00:47
Программа кодирования : mkvmerge v8.2.0 ('World of Adventure') 64bit
Библиотека кодирования : libebml v1.3.1 + libmatroska v1.4.2
DURATION : 01:39:42.027000000
NUMBER_OF_FRAMES : 560815
NUMBER_OF_BYTES : 1128359848
_STATISTICS_WRITING_APP : mkvmerge v8.2.0 ('World of Adventure') 64bit
_STATISTICS_WRITING_DATE_UTC : 2015-10-30 06:00:47
_STATISTICS_TAGS : BPS DURATION NUMBER_OF_FRAMES NUMBER_OF_BYTES
Видео
Идентификатор : 1
Формат : AVC
Формат/Информация : Advanced Video Codec
Профиль формата : High@L4.1
Параметр CABAC формата : Да
Параметр ReFrames формата : 4 кадра
Идентификатор кодека : V_MPEG4/ISO/AVC
Продолжительность : 1 ч. 39 м.
Битрейт : 11,6 Мбит/сек
Ширина : 1920 пикселей
Высота : 1080 пикселей
Соотношение сторон : 16:9
Режим частоты кадров : Постоянный
Частота кадров : 23,976 кадра/сек
Цветовое пространство : YUV
Субдискретизация насыщенности : 4:2:0
Битовая глубина : 8 бит
Тип развёртки : Прогрессивная
Бит/(Пиксели*Кадры) : 0.233
Размер потока : 8,07 Гбайт (85%)
Библиотека кодирования : x264 core 146 r2538 121396c
Настройки программы : cabac=1 / ref=4 / deblock=1:-1:-1 / analyse=0x3:0x113 / me=umh / subme=10 / psy=1 / psy_rd=1.00:0.15 / mixed_ref=1 / me_range=32 / chroma_me=1 / trellis=2 / 8x8dct=1 / cqm=0 / deadzone=21,11 / fast_pskip=1 / chroma_qp_offset=-3 / threads=6 / lookahead_threads=1 / sliced_threads=0 / nr=0 / decimate=1 / interlaced=0 / bluray_compat=0 / constrained_intra=0 / bframes=8 / b_pyramid=2 / b_adapt=2 / b_bias=0 / direct=1 / weightb=1 / open_gop=0 / weightp=2 / keyint=230 / keyint_min=23 / scenecut=40 / intra_refresh=0 / rc_lookahead=40 / rc=crf / mbtree=0 / crf=16.0 / qcomp=0.60 / qpmin=0 / qpmax=69 / qpstep=4 / vbv_maxrate=40000 / vbv_bufsize=50000 / crf_max=0.0 / nal_hrd=none / filler=0 / ip_ratio=1.40 / pb_ratio=1.30 / aq=1:1.00
Язык : English
Default : Да
Forced : Нет
DURATION : 01:39:42.560000000
NUMBER_OF_FRAMES : 143438
NUMBER_OF_BYTES : 8863275105
_STATISTICS_WRITING_APP : mkvmerge v8.2.0 ('World of Adventure') 64bit
_STATISTICS_WRITING_DATE_UTC : 2015-10-30 06:00:47
_STATISTICS_TAGS : BPS DURATION NUMBER_OF_FRAMES NUMBER_OF_BYTES
Аудио #1
Идентификатор : 2
Формат : AC-3
Формат/Информация : Audio Coding 3
Расширение режима : CM (complete main)
Параметр Endianness формата : Big
Идентификатор кодека : A_AC3
Продолжительность : 1 ч. 39 м.
Вид битрейта : Постоянный
Битрейт : 192 Кбит/сек
Каналы : 2 канала
Расположение каналов : Front: L R
Частота : 48,0 КГц
Метод сжатия : С потерями
Размер потока : 137 Мбайт (1%)
Заголовок : DVO (любительский, Jetvis studio)
Язык : Russian
Default : Да
Forced : Нет
Аудио #2
Идентификатор : 3
Формат : DTS
Формат/Информация : Digital Theater Systems
Режим : 16
Параметр Endianness формата : Big
Идентификатор кодека : A_DTS
Продолжительность : 1 ч. 39 м.
Вид битрейта : Постоянный
Битрейт : 1509 Кбит/сек
Каналы : 6 каналов
Расположение каналов : Front: L C R, Side: L R, LFE
Частота : 48,0 КГц
Битовая глубина : 24 бит
Метод сжатия : С потерями
Размер потока : 1,05 Гбайт (11%)
Заголовок : Original
Язык : English
Default : Нет
Forced : Нет





   Похожие торренты   Торрент   Размер 
В этой теме нет новых непрочитанных сообщений. Кровь в вино / Blood Into Wine / 2010 / ЛД / BDRip-AVC by msltel

62 | 10

2.79 ГБ

В этой теме нет новых непрочитанных сообщений. Кровь в вино / Blood Into Wine (2010) BDRip 720p by msltel

67 | 4

4.16 ГБ

В этой теме нет новых непрочитанных сообщений. Кровь и вино / Blood and Wine (1996) DVD9

0 | 2

7.78 ГБ

В этой теме нет новых непрочитанных сообщений. Кровь и вино / Blood and Wine (1996) DVDRip от ExKinoRay

14 | 5

1.47 ГБ

В этой теме нет новых непрочитанных сообщений. Кровь и кость / Blood and Bone (2009) BDRip 1080p by msltel | A, L2

41 | 22

12.17 ГБ

В этой теме нет новых непрочитанных сообщений. Вино. Зеленая революция / Wine: The Green Revolution / Clef des Terroirs (2011) Blu-Ray Remux 1080p от HDClub

6 | 3

16.01 ГБ

В этой теме нет новых непрочитанных сообщений. Вино. Зеленая революция / Wine: The Green Revolution / Clef des Terroirs (2011) BDRip от DeathN2

110 | 2

1.46 ГБ




Вы не можете начинать темы
Вы не можете отвечать на сообщения
Вы не можете редактировать свои сообщения
Вы не можете удалять свои сообщения
Вы не можете добавлять вложения

Перейти:  
Для Мосгорсуда, Роскомнадзора и рекламодателей: mosgorsud-torrent[собачка]yandex.ru
 Вход
ppkBB3cker v.2 © 2008-2014 @ PPK
[ Time : 0.019s | 14 Queries | GZIP : Off ]

Торрент трекер RUTOR.IN, Не можете зайти на rutor.org? Какой новый адрес рутор? Какое зеркало рутор? Не работает rutor.org и зеркала? Тогда наш торрент специально для вас. Rutor.in неофициальное зеркало rutor. В случае если у Вас заблокирован rutor или вдруг Вы не можете на него зайти, то Вы без труда сможете скачать бесплатно и без рекламы последние новинки кино, игр, сериалов и прочего у нас, на Rutor.in. Не нужно использовать прокси, чтобы зайти на рутор, достаточно воспользоваться нашим ресурсом. Все новые фильмы, игры, сериалы, книги и музыка за 2013 и 2014 годы через торрент бесплатно. Скачивайте фильмы в хорошем качестве, игры для пк, xbox, playstation без регистрации. У нас вы найдете новые Зарубежные сериалы и Русские сериалы 2013, 2014, 2015 годов. Оставайтесь с нами, качайте любимые фильмы, игры, сериалы, книги и музыку.