img image001 image001 image001 image001 image001 image001 image001 image001 image001 image001 image001 image001 image001 image001 image001

Planets Sun Sun Sun
Статистика раздачи
Автор: Nickolas3434 | Размер: 556.49 МБ | Добавлен: 11 ноя 2015
Раздают: 30    Качают: 2
Скачать торрент
Скачать торрент
Описание торрента

СообщениеДобавлено: 11 ноя 2015 


Название: Прорыв
Оригинальное название: Breakthrough
Год выпуска: 2015
Жанр: Документальный, научно-познавательный
Выпущено: США
Режиссер: Рон Ховард, Бретт Ратнет, Пол Джаматти, Акива Голдсман, Анджела Бассетт и Питер Берг
О фильме: ПРОРЫВ покажет вам пробуждающую работу мысли и воображение перспективу научных открытий в реальном времени. В каждом эпизоде мы будем наблюдать за работой учёных и исследователей, работающих над передовыми проектами с огромным потенциалом: способные к трансформации приборы, решающие неотложные проблемы (как, например, разработка вакцины от вируса Эболы, поиски способа остановить эпилептические припадки или открытие нового метода сбора воды в африканской деревне, опустошённой из-за засухи). С учётом значимости этих историй, каждая серия этой передачи снята одним из лучших режиссёров. Рон Ховард, Бретт Ратнет, Пол Джаматти, Акива Голдсман, Анджела Бассетт и Питер Берг — вот первые шестеро. Помимо того, что сам научный прорыв на час захватывает ваше внимание, взгляд исследователей перед камерами и режиссёров — за кадром сливаются в уникальную линзу, через которую мы наблюдаем этот прорыв. Подобно фильму «30 событий за 30 лет» телесети EXPN, режиссёры Прорыва имели желание и возможности привносить свою стилистику в каждую серию.
01. Борьба с пандемиями / Fighting Pamdemics
Новые технологии, разработанные учёными и экспертами в области медицины, в ближайшем будущем помогут найти лекарства от разных вирусов пандемии.

Документальный дубляж "Велес":
Голос рассказчика - полный дубляж
Интервью - слышна оригинальная речь
Текст читал Дмитрий Стрелков

Качество: SATRip
Видео: XviD, ~ 1600 Кбит/с, 720x400
Аудио: AC3, 2 ch, 192 Кбит/с
Продолжительность: 1 x ~ 00:42:57
Перевод: Дублированный
Общее
Полное имя : Proryv.2015.XviD.SATRip.by.GeneralFilm\01.serija.avi
Формат : AVI
Формат/Информация : Audio Video Interleave
Размер файла : 556 Мбайт
Продолжительность : 42 м.
Общий поток : 1811 Кбит/сек
Программа кодирования : VirtualDubMod 1.5.10.3 | www.virtualdub-fr.org || (build 2550/release)
Библиотека кодирования : VirtualDubMod build 2550/release
Видео
Идентификатор : 0
Формат : MPEG-4 Visual
Профиль формата : Advanced Simple@L5
Параметр BVOP формата : 1
Параметр QPel формата : Нет
Параметр GMC формата : Без точки перехода
Параметр матрицы формата : Выборочная
Идентификатор кодека : XVID
Идентификатор кодека/Подсказка : XviD
Продолжительность : 42 м.
Битрейт : 1610 Кбит/сек
Ширина : 720 пикселей
Высота : 400 пикселей
Соотношение сторон : 16:9
Частота кадров : 25,000 кадров/сек
Цветовое пространство : YUV
Субдискретизация насыщенности : 4:2:0
Битовая глубина : 8 бит
Тип развёртки : Прогрессивная
Метод сжатия : С потерями
Бит/(Пиксели*Кадры) : 0.224
Размер потока : 495 Мбайт (89%)
Библиотека кодирования : XviD 73
Аудио
Идентификатор : 1
Формат : AC-3
Формат/Информация : Audio Coding 3
Расширение режима : CM (complete main)
Параметр Endianness формата : Big
Идентификатор кодека : 2000
Продолжительность : 42 м.
Вид битрейта : Постоянный
Битрейт : 192 Кбит/сек
Каналы : 2 канала
Расположение каналов : Front: L R
Частота : 48,0 КГц
Метод сжатия : С потерями
Размер потока : 59,0 Мбайт (11%)
Выравнивание : Разделение по промежуткам
Продолжительность промежутка : 40 мс. (1,00 видеокадр)
Время предзагрузки промежутка : 500 мс.







Релиз от:



   Похожие торренты   Торрент   Размер 
В этой теме нет новых непрочитанных сообщений. Прорыв / Breakthrough [01-03 из 06] (2015) SATRip от GeneralFilm | D

35 | 5

1.63 ГБ

В этой теме нет новых непрочитанных сообщений. Прорыв / Breakthrough [01-02 из 06] (2015) SATRip от GeneralFilm | D

14 | 3

1.09 ГБ

В этой теме нет новых непрочитанных сообщений. Прорыв / Breakthrough [01-06 из 06] (2015) SATRip от GeneralFilm | D

83 | 9

3.26 ГБ

В этой теме нет новых непрочитанных сообщений. Прорыв / Breakthrough [s01] [02-04 из 06]] (2015) HDTV 1080i | P1

7 | 0

5.31 ГБ

В этой теме нет новых непрочитанных сообщений. Суд времени. Реформы Петра 1 - прорыв в будущее или путь в тупик? (2010) SATRip

65 | 2

959.26 МБ

В этой теме нет новых непрочитанных сообщений. Сборник - Весенний поп прорыв (2015) MP3

833 | 39

670.87 МБ

В этой теме нет новых непрочитанных сообщений. Сборник - Модный Hit-прорыв Europa plus (2015) MP3

594 | 63

688 МБ




Вы не можете начинать темы
Вы не можете отвечать на сообщения
Вы не можете редактировать свои сообщения
Вы не можете удалять свои сообщения
Вы не можете добавлять вложения

Перейти:  
Для Мосгорсуда, Роскомнадзора и рекламодателей: mosgorsud-torrent[собачка]yandex.ru
 Вход
ppkBB3cker v.2 © 2008-2014 @ PPK
[ Time : 0.030s | 14 Queries | GZIP : Off ]

Торрент трекер RUTOR.IN, Не можете зайти на rutor.org? Какой новый адрес рутор? Какое зеркало рутор? Не работает rutor.org и зеркала? Тогда наш торрент специально для вас. Rutor.in неофициальное зеркало rutor. В случае если у Вас заблокирован rutor или вдруг Вы не можете на него зайти, то Вы без труда сможете скачать бесплатно и без рекламы последние новинки кино, игр, сериалов и прочего у нас, на Rutor.in. Не нужно использовать прокси, чтобы зайти на рутор, достаточно воспользоваться нашим ресурсом. Все новые фильмы, игры, сериалы, книги и музыка за 2013 и 2014 годы через торрент бесплатно. Скачивайте фильмы в хорошем качестве, игры для пк, xbox, playstation без регистрации. У нас вы найдете новые Зарубежные сериалы и Русские сериалы 2013, 2014, 2015 годов. Оставайтесь с нами, качайте любимые фильмы, игры, сериалы, книги и музыку.