img image001 image001 image001 image001 image001 image001 image001 image001 image001 image001 image001 image001 image001 image001 image001

Planets Sun Sun Sun
Статистика раздачи
Автор: Nickolas3434 | Размер: 745.23 МБ | Добавлен: 11 дек 2015
Раздают: 91    Качают: 7
Скачать торрент
Скачать торрент
Описание торрента

СообщениеДобавлено: 11 дек 2015 

Страна: Германия
Производство: Кино Культ
Жанр: документальный
Год выпуска: 2015
Продолжительность: 00:59:59
Перевод: Одноголосый профессиональный закадровый
Cубтитры: нет
Оригинальная аудиодорожка: русский
Режиссер: Марк Барталмай / Mark Bartalmai
В создании фильма учавствовали:
Марк Барталмай...
Описание:
Суть кинокартины — показать правдивое отображение военного конфликта в Донбассе. Создатели фильма говорят: «Это фильм о невероятном масштабе и жестокости войны без какой-либо агитации. Сейчас пропаганда достигла нового уровня качества. Дезинформация, сокрытие истины – от полуправды до откровенной лжи – превратились в оружие некоторых западных СМИ в этой войне, происходящей в самом центре Европы, в совершенно беспрецедентных масштабах».
«Независимо от того, находишься ли ты в мирном районе или следуешь с военным подразделением, Украина была в 2014 году самой опасной страной для журналистов. Ни в какой другой стране не пострадало и не погибло в процентном отношении больше журналистов», – утверждает Марк Барталмай.
Согласно исследованию немецкого телеканала NDR, 63% немцев частично или полностью не доверяют СМИ Германии в их освещении новостей с Украины. По мнению немцев, события на Украине освещаются «однобоко и необъективно», и почти каждый пятый из них убежден в сознательной дезинформации СМИ относительно украинского конфликта. Причём отсутствие доверия со стороны немцев прослеживается во всех возрастных группах, с разным уровнем доходов, независимо от пола и места проживания....





Источник: DVB
Качество видео: SATRip
Формат видео: AVI
Видео: 720x400 (16:9), 25 fps, XviD ~ 1535 kbps avg, 0.213 bit/pixel
Аудио: 48 kHz, Dolby Digital AC3 2.0, 192 kbps
Раздача от:
Общее
Полное имя : Ukrainskaya.agoniya.Skrytaya.voyna.2015.SATRip_[New-team]_by_AVP_Studio.avi
Формат : AVI
Формат/Информация : Audio Video Interleave
Размер файла : 745 Мбайт
Продолжительность : 59 м.
Общий поток : 1737 Кбит/сек
Программа кодирования : VirtualDubMod 1.5.10.3 | www.virtualdub-fr.org || (build 2550/release)
Библиотека кодирования : VirtualDubMod build 2550/release
Видео
Идентификатор : 0
Формат : MPEG-4 Visual
Профиль формата : Advanced Simple@L5
Параметр BVOP формата : 1
Параметр QPel формата : Нет
Параметр GMC формата : Без точки перехода
Параметр матрицы формата : Выборочная
Идентификатор кодека : XVID
Идентификатор кодека/Подсказка : XviD
Продолжительность : 59 м.
Битрейт : 1535 Кбит/сек
Ширина : 720 пикселей
Высота : 400 пикселей
Соотношение сторон : 16:9
Частота кадров : 25,000 кадров/сек
Цветовое пространство : YUV
Субдискретизация насыщенности : 4:2:0
Битовая глубина : 8 бит
Тип развёртки : Прогрессивная
Метод сжатия : С потерями
Бит/(Пиксели*Кадры) : 0.213
Размер потока : 659 Мбайт (88%)
Библиотека кодирования : XviD 1.2.1 (UTC 2008-12-04)
Аудио
Идентификатор : 1
Формат : AC-3
Формат/Информация : Audio Coding 3
Расширение режима : CM (complete main)
Параметр Endianness формата : Big
Идентификатор кодека : 2000
Продолжительность : 59 м.
Вид битрейта : Постоянный
Битрейт : 192 Кбит/сек
Каналы : 2 канала
Расположение каналов : Front: L R
Частота : 48,0 КГц
Метод сжатия : С потерями
Размер потока : 82,4 Мбайт (11%)
Выравнивание : Разделение по промежуткам
Продолжительность промежутка : 40 мс. (1,00 видеокадр)
Время предзагрузки промежутка : 500 мс





   Похожие торренты   Торрент   Размер 
В этой теме нет новых непрочитанных сообщений. Украинская агония. Скрытая война (2015) SATRip-AVC от New-Team

189 | 22

744.37 МБ

В этой теме нет новых непрочитанных сообщений. Украинская битва экстрасенсов. Война титанов [10x01] (2012) SATRip

13 | 2

1.33 ГБ

В этой теме нет новых непрочитанных сообщений. Украинская битва экстрасенсов [S15] (2015) SATRip

70 | 95

18.22 ГБ

В этой теме нет новых непрочитанных сообщений. Украинская битва экстрасенсов [15x01-06] (2015) SATRip

51 | 119

9.12 ГБ

В этой теме нет новых непрочитанных сообщений. Украинская битва экстрасенсов [15x01-04] (2015) SATRip

87 | 60

6.14 ГБ

В этой теме нет новых непрочитанных сообщений. Украинская битва экстрасенсов [15x01-02] (2015) SATRip

73 | 18

3.07 ГБ

В этой теме нет новых непрочитанных сообщений. Украинская битва экстрасенсов [15x12] (2015) Satrip

5 | 0

769.18 МБ




Вы не можете начинать темы
Вы не можете отвечать на сообщения
Вы не можете редактировать свои сообщения
Вы не можете удалять свои сообщения
Вы не можете добавлять вложения

Перейти:  
Для Мосгорсуда, Роскомнадзора и рекламодателей: mosgorsud-torrent[собачка]yandex.ru
 Вход
ppkBB3cker v.2 © 2008-2014 @ PPK
[ Time : 0.044s | 15 Queries | GZIP : On ]

Торрент трекер RUTOR.IN, Не можете зайти на rutor.org? Какой новый адрес рутор? Какое зеркало рутор? Не работает rutor.org и зеркала? Тогда наш торрент специально для вас. Rutor.in неофициальное зеркало rutor. В случае если у Вас заблокирован rutor или вдруг Вы не можете на него зайти, то Вы без труда сможете скачать бесплатно и без рекламы последние новинки кино, игр, сериалов и прочего у нас, на Rutor.in. Не нужно использовать прокси, чтобы зайти на рутор, достаточно воспользоваться нашим ресурсом. Все новые фильмы, игры, сериалы, книги и музыка за 2013 и 2014 годы через торрент бесплатно. Скачивайте фильмы в хорошем качестве, игры для пк, xbox, playstation без регистрации. У нас вы найдете новые Зарубежные сериалы и Русские сериалы 2013, 2014, 2015 годов. Оставайтесь с нами, качайте любимые фильмы, игры, сериалы, книги и музыку.