img image001 image001 image001 image001 image001 image001 image001 image001 image001 image001 image001 image001 image001 image001 image001

Planets Sun Sun Sun
Статистика раздачи
Автор: PriZraK | Размер: 586.72 МБ | Добавлен: 10 янв 2016
Раздают: 662    Качают: 26
Скачать торрент
Скачать торрент
Описание торрента

СообщениеДобавлено: 10 янв 2016 



Информация о фильме
Название: Атлантида Русского Севера
Год выхода: 2015
Жанр: Документальный
Режиссер: Софья Горленко

О фильме:
Фильм рассказывает о Русском Севере — территории уникального деревянного зодчества и одном из немногих в стране мест, где русский человек может осознать истоки своей культуры и духовного развития. Именно здесь нашлись люди, готовые возрождать традиционный сельский уклад жизни вопреки глобализации и государственной политике урбанизации. В абсолютно каждой стране присутствуют свои традиции, которые в наше время начали терять свою актуальность. Но в каждой стране есть то, где не забывают о традициях и канонах, которые заложили их предки. Новый фильм под названием «Атлантида Русского Севера» расскажет зрителям о таком месте в России. Это место Русский Север- место, где традиции занимают одно из первых мест. В этом месте русский человек почувствует всю силу традиций, он обретет чувство былого времени, почувствовать всю русскую культуру. Именно на Русском Севере есть люди, которые хотят возродить эти традиции во всей стране. Смотрите новый фильм под названием «Атлантида Русского Севера», он очень увлекательный и интересный, так же с помощью этого замечательного фильма зрители смогут расширить свои знания о давней культуре своей страны, которая, к сожалению, начала терять свою актуальность.

Страна: Россия
Продолжительность: 01:14:00



Файл
Кодек: XviD
Качество: BDRip
Видео: 901 Кбит/с, 720x408 (1.76:1), 24.000 fps
Звук: Русский (AC3, 2 ch, 192 Кбит/с)

General
Complete name :Атлантида Русского Севера (2015) BDRip.avi
Format : AVI
Format/Info : Audio Video Interleave
File size : 587 MiB
Duration : 1h 14mn
Overall bit rate : 1 108 Kbps
Writing application : Lavf56.25.101

Video
ID : 0
Format : MPEG-4 Visual
Format profile : Advanced Simple@L5
Format settings, BVOP : 1
Format settings, QPel : No
Format settings, GMC : No warppoints
Format settings, Matrix : Default (H.263)
Codec ID : XVID
Codec ID/Hint : XviD
Duration : 1h 14mn
Bit rate : 901 Kbps
Width : 720 pixels
Height : 408 pixels
Display aspect ratio : 16:9
Frame rate : 24.000 fps
Color space : YUV
Chroma subsampling : 4:2:0
Bit depth : 8 bits
Scan type : Progressive
Compression mode : Lossy
Bits/(Pixel*Frame) : 0.064
Stream size : 477 MiB (81%)
Title : Alias Data Handler
Writing library : XviD 67

Audio
ID : 1
Format : AC-3
Format/Info : Audio Coding 3
Mode extension : CM (complete main)
Format settings, Endianness : Big
Codec ID : 2000
Duration : 1h 14mn
Bit rate mode : Constant
Bit rate : 192 Kbps
Channel(s) : 2 channels
Channel positions : Front: L R
Sampling rate : 48.0 KHz
Bit depth : 16 bits
Compression mode : Lossy
Stream size : 102 MiB (17%)
Alignment : Aligned on interleaves
Interleave, duration : 32 ms (1.54 video frames)
Title : Alias Data Handler


Релиз от: исходник BDRip 1080p



   Похожие торренты   Торрент   Размер 
В этой теме нет новых непрочитанных сообщений. Атлантида Русского Севера (2015) BDRip 1080p

1611 | 427

9.69 ГБ

В этой теме нет новых непрочитанных сообщений. VA - Новинки Русского Рока Выпуск 4 (2015) MP3 от FilmRus

213 | 9

537.23 МБ

В этой теме нет новых непрочитанных сообщений. Принцесса с севера [01-04 из 04] (2015) SATRip от Files-x

1668 | 312

2.15 ГБ

В этой теме нет новых непрочитанных сообщений. Юрий Подольский (сост.) - Атлантида и другие исчезнувшие города (2015) FB2, RTF

243 | 7

10.1 МБ

В этой теме нет новых непрочитанных сообщений. Атлантида: Затерянный мир / Atlantis: The Lost Empire (2001) BDRip-AVC | iPad | D

223 | 22

1.7 ГБ

В этой теме нет новых непрочитанных сообщений. Атлантида: Затерянный мир / Atlantis: The Lost Empire (2001) BDRip от KinoRay

130 | 14

2.14 ГБ

В этой теме нет новых непрочитанных сообщений. Атлантида: Затерянный мир / Atlantis: The Lost Empire (2001) BDRip 720p от HDCLUB

48 | 25

7.31 ГБ




Вы не можете начинать темы
Вы не можете отвечать на сообщения
Вы не можете редактировать свои сообщения
Вы не можете удалять свои сообщения
Вы не можете добавлять вложения

Перейти:  
Для Мосгорсуда, Роскомнадзора и рекламодателей: mosgorsud-torrent[собачка]yandex.ru
 Вход
ppkBB3cker v.2 © 2008-2014 @ PPK
[ Time : 0.025s | 14 Queries | GZIP : Off ]

Торрент трекер RUTOR.IN, Не можете зайти на rutor.org? Какой новый адрес рутор? Какое зеркало рутор? Не работает rutor.org и зеркала? Тогда наш торрент специально для вас. Rutor.in неофициальное зеркало rutor. В случае если у Вас заблокирован rutor или вдруг Вы не можете на него зайти, то Вы без труда сможете скачать бесплатно и без рекламы последние новинки кино, игр, сериалов и прочего у нас, на Rutor.in. Не нужно использовать прокси, чтобы зайти на рутор, достаточно воспользоваться нашим ресурсом. Все новые фильмы, игры, сериалы, книги и музыка за 2013 и 2014 годы через торрент бесплатно. Скачивайте фильмы в хорошем качестве, игры для пк, xbox, playstation без регистрации. У нас вы найдете новые Зарубежные сериалы и Русские сериалы 2013, 2014, 2015 годов. Оставайтесь с нами, качайте любимые фильмы, игры, сериалы, книги и музыку.