img image001 image001 image001 image001 image001 image001 image001 image001 image001 image001 image001 image001 image001 image001 image001

Planets Sun Sun Sun
Статистика раздачи
Автор: Nickolas3434 | Размер: 690.61 МБ | Добавлен: 26 мар 2016
Раздают: 80    Качают: 4
Скачать торрент
Скачать торрент
Описание торрента

СообщениеДобавлено: 26 мар 2016 

Информация о фильме
Название: Национальные парки Америки. Йеллоустоун
Оригинальное название: America's National Parks. Yellowstone
Год выхода: 2015
Жанр: Документальный
Режиссер: Оливер Гётцль
О фильме:
Йеллоустоун - земля с "огненным сердцем". Первый Национальный парк Америки. Первозданная и неприступная крепость, защитившая природу запада от исчезновения. Ежегодно более 3 000 000 человек приезжают полюбоваться красотами Йеллоустоуна. Но лишь немногие решаются пройти дальше грозного стража - горного хребта и попасть в соседнюю долину, где разворачиваются поистине драматические события: старые распри, появление новой жизни и неожиданное проявление отваги. Йеллоустоун - настоящая жемчужина лесов и долин, он стал домом для большого стада бизонов, волчьих стай и поколений гризли. Подумайте дважды прежде чем сказать, что знаете Йеллоустоун. Таким вы его ещё не видели.
Страна: США
Студия: National Geographic
Продолжительность: 00:44:01
Перевод: Дублированный
Файл
Кодек: H.264
Качество: HDTVRip-AVC
Видео: 1024x576 (16:9), 23,976 fps, AVC ~2000 kbps avg, 0.136 bit/pixel
Аудио: 48 kHz, AC3 Dolby Digital, 2/0 (L,R) ch, ~192.00 kbps avg
Релиз от Kaztorrents
Автор Рипа: RockeT
raw [info]: 1024x576p 1:1 @ 25/1 fps (cfr)
x264 [info]: using SAR=1/1
x264 [info]: using cpu capabilities: MMX2 SSE2Fast SSSE3 FastShuffle SSE4.2 AVX AVX2 FMA3 BMI1 BMI2
x264 [info]: profile High, level 4.1
x264 [info]: frame I:418 Avg QP:18.31 size:110063
x264 [info]: frame P:17175 Avg QP:21.71 size: 22702
x264 [info]: frame B:48438 Avg QP:26.50 size: 4630
x264 [info]: consecutive B-frames: 4.9% 4.6% 9.3% 37.4% 9.8% 18.9% 2.9% 12.1% 0.1% 0.1%
x264 [info]: mb I I16..4: 4.8% 74.9% 20.2%
x264 [info]: mb P I16..4: 1.6% 8.0% 1.0% P16..4: 45.2% 15.8% 17.3% 1.0% 0.4% skip: 9.6%
x264 [info]: mb B I16..4: 0.1% 1.1% 0.2% B16..8: 34.7% 7.2% 2.0% direct: 3.4% skip:51.2% L0:36.1% L1:52.1% BI:11.7%
x264 [info]: 8x8 transform intra:75.3% inter:61.1%
x264 [info]: direct mvs spatial:92.6% temporal:7.4%
x264 [info]: coded y,uvDC,uvAC intra: 76.5% 59.3% 21.4% inter: 18.2% 15.9% 0.6%
x264 [info]: i16 v,h,dc,p: 26% 27% 9% 39%
x264 [info]: i8 v,h,dc,ddl,ddr,vr,hd,vl,hu: 6% 17% 6% 7% 12% 10% 16% 9% 17%
x264 [info]: i4 v,h,dc,ddl,ddr,vr,hd,vl,hu: 6% 15% 4% 7% 13% 11% 16% 10% 18%
x264 [info]: i8c dc,h,v,p: 41% 33% 14% 12%
x264 [info]: Weighted P-Frames: Y:3.1% UV:0.9%
x264 [info]: ref P L0: 61.9% 14.7% 12.5% 3.0% 2.5% 1.7% 1.6% 0.9% 1.0% 0.2% 0.0%
x264 [info]: ref B L0: 88.6% 6.0% 2.3% 1.0% 0.8% 0.7% 0.4% 0.2%
x264 [info]: ref B L1: 96.2% 3.8%
x264 [info]: kb/s:1999.61
x264 [total]: encoded 66031 frames, 2.53 fps, 1999.61 kb/s
General
Unique ID : 194076601166172965946619461819393792108 (0x9201CB34735C99628394E72DBD8A586C)
Complete name : C:UsersDesktopФильмыNG_America's National Parks_Yellowstone.HDTVRip-AVC.by RockeT [Virtus & KazTorrentS] .mkv
Format : Matroska
Format version : Version 2
File size : 691 MiB
Duration : 44mn 1s
Overall bit rate : 2 193 Kbps
Encoded date : UTC 2016-03-25 17:14:33
Writing application : mkvmerge v5.8.0 ('No Sleep / Pillow') built on Sep 2 2012 15:37:04
Writing library : libebml v1.2.3 + libmatroska v1.3.0
Video
ID : 1
Format : AVC
Format/Info : Advanced Video Codec
Format profile : High@L4.1
Format settings, CABAC : Yes
Format settings, ReFrames : 9 frames
Codec ID : V_MPEG4/ISO/AVC
Duration : 44mn 1s
Bit rate : 2 000 Kbps
Width : 1 024 pixels
Height : 576 pixels
Display aspect ratio : 16:9
Frame rate mode : Constant
Frame rate : 25.000 fps
Color space : YUV
Chroma subsampling : 4:2:0
Bit depth : 8 bits
Scan type : Progressive
Bits/(Pixel*Frame) : 0.136
Stream size : 616 MiB (89%)
Writing library : x264 core 125 r2208 d9d2288
Encoding settings : cabac=1 / ref=9 / deblock=1:-1:-1 / analyse=0x3:0x133 / me=umh / subme=9 / psy=1 / psy_rd=1.00:0.10 / mixed_ref=1 / me_range=16 / chroma_me=1 / trellis=2 / 8x8dct=1 / cqm=0 / deadzone=21,11 / fast_pskip=0 / chroma_qp_offset=-3 / threads=6 / lookahead_threads=1 / sliced_threads=0 / nr=0 / decimate=1 / interlaced=0 / bluray_compat=0 / constrained_intra=0 / bframes=9 / b_pyramid=2 / b_adapt=2 / b_bias=0 / direct=3 / weightb=1 / open_gop=0 / weightp=2 / keyint=250 / keyint_min=25 / scenecut=40 / intra_refresh=0 / rc_lookahead=50 / rc=2pass / mbtree=1 / bitrate=2000 / ratetol=1.0 / qcomp=0.60 / qpmin=0 / qpmax=69 / qpstep=4 / cplxblur=20.0 / qblur=0.5 / ip_ratio=1.40 / aq=1:1.00
Default : Yes
Forced : No
Audio
ID : 2
Format : AC-3
Format/Info : Audio Coding 3
Mode extension : CM (complete main)
Format settings, Endianness : Big
Codec ID : A_AC3
Duration : 44mn 1s
Bit rate mode : Constant
Bit rate : 192 Kbps
Channel(s) : 2 channels
Channel positions : Front: L R
Sampling rate : 48.0 KHz
Bit depth : 16 bits
Compression mode : Lossy
Stream size : 60.5 MiB (9%)
Default : Yes
Forced : No



   Похожие торренты   Торрент   Размер 
В этой теме нет новых непрочитанных сообщений. NG: Национальные парки Америки. Йеллоустоун / America's National Parks. Yellowstone (2015) HDTVRip от Kaztorrents | D

30 | 6

627.59 МБ

В этой теме нет новых непрочитанных сообщений. NG: Национальные парки Америки. Йеллоустоун / America's National Parks. Yellowstone (2015) HDTVRip 720p | D

8 | 0

1.53 ГБ

В этой теме нет новых непрочитанных сообщений. NG: Национальные парки Америки. Йосемити / America's National Parks. Yosemite (2015) HDTVRip от Kaztorrents | D

3 | 0

629.53 МБ

В этой теме нет новых непрочитанных сообщений. NG: Национальные парки Америки. Олимпик / America's National Parks. Olympic (2015) HDTVRip-AVC от Kaztorrents | D

43 | 2

690.37 МБ

В этой теме нет новых непрочитанных сообщений. NG: Национальные парки Америки. Олимпик / America's National Parks. Olympic (2015) HDTVRip от Kaztorrents | D

4 | 1

629.44 МБ

В этой теме нет новых непрочитанных сообщений. NG: Национальные парки Америки. Эверглейдс / America's National Parks. Everglades (2015) HDTVRip от Kaztorrents | D

4 | 0

628.18 МБ

В этой теме нет новых непрочитанных сообщений. NG: Национальные парки Америки. Сагуаро / America's National Parks. Saguaro (2015) HDTVRip от Kaztorrents | D

0 | 10

629.55 МБ




Вы не можете начинать темы
Вы не можете отвечать на сообщения
Вы не можете редактировать свои сообщения
Вы не можете удалять свои сообщения
Вы не можете добавлять вложения

Перейти:  
Для Мосгорсуда, Роскомнадзора и рекламодателей: mosgorsud-torrent[собачка]yandex.ru
 Вход
ppkBB3cker v.2 © 2008-2014 @ PPK
[ Time : 0.043s | 16 Queries | GZIP : Off ]

cron