img image001 image001 image001 image001 image001 image001 image001 image001 image001 image001 image001 image001 image001 image001 image001

Planets Sun Sun Sun
Статистика раздачи
Автор: Nickolas3434 | Размер: 629.39 МБ | Добавлен: 29 мар 2016
Раздают: 94    Качают: 12
Скачать торрент
Скачать торрент
Описание торрента

СообщениеДобавлено: 29 мар 2016 


Информация о фильме
Название: Национальные парки Америки. Большой каньон
Оригинальное название: America's National Parks. Grand Canyon
Год выхода: 2015
Жанр: Документальный, природа, флора, фауна
Режиссер: Генри М. Микс, Ян Сохачевски
О фильме:Большой каньон - одно из самых известных мест США, созданных природой больше миллиона лет назад, но мало кто побывал за его северной стороной. Этот шрам на лице планеты с трудом поддаётся нашему пониманию. Человеческий глаз не в силах уловить все оттенки его красок. Геология этого места бросает вызов современной науке. Большой каньон - открытый учебник истории, а его слои, страницы истории, уносят нас в прошлое почти на 2 000 000 000 лет назад. И всё же, жизнь в этих местах бьёт ключом, хотя здешним обитателям приходится непросто. Поражения в битвах и триумфальные возвращения, в каньоне выживают лишь самые стойкие и твердолобые. В этих местах процветает воровство, ценятся быстрота и ловкость, а чтобы пройти здесь по воде требуются стальные нервы. Национальный парк Большой каньон - место, которое учит смирению.
Страна: США / Doclights / NDR NaturFilm
Продолжительность: 00:43:59
Перевод: дублированный
Файл
Кодек: XviD
Качество: HDTVRip
Видео: XviD, 1798 Кбит/с, 720x400
Звук: AC3, 2 ch, 192 Кбит/с

Видео
Идентификатор : 0
Формат : MPEG-4 Visual
Профиль формата : Advanced Simple@L5
Параметр BVOP формата : 2
Параметр QPel формата : Нет
Параметр GMC формата : Без точки перехода
Параметр матрицы формата : Default (H.263)
Идентификатор кодека : XVID
Идентификатор кодека/Подсказка : XviD
Продолжительность : 43 м.
Битрейт : 1798 Кбит/сек
Ширина : 720 пикселей
Высота : 400 пикселей
Соотношение сторон : 16:9
Частота кадров : 25,000 кадров/сек
Цветовое пространство : YUV
Субдискретизация насыщенности : 4:2:0
Битовая глубина : 8 бит
Тип развёртки : Прогрессивная
Метод сжатия : С потерями
Бит/(Пиксели*Кадры) : 0.250
Размер потока : 566 Мбайт (90%)
Библиотека кодирования : XviD 1.2.1 (UTC 2008-12-04)
Аудио
Идентификатор : 1
Формат : AC-3
Формат/Информация : Audio Coding 3
Расширение режима : CM (complete main)
Параметр Endianness формата : Big
Идентификатор кодека : 2000
Продолжительность : 43 м.
Вид битрейта : Постоянный
Битрейт : 192 Кбит/сек
Каналы : 2 канала
Расположение каналов : Front: L R
Частота : 48,0 КГц
Битовая глубина : 16 бит
Метод сжатия : С потерями
Размер потока : 60,4 Мбайт (10%)
Выравнивание : Разделение по промежуткам
Продолжительность промежутка : 40 мс. (1,00 видеокадр)
Время предзагрузки промежутка : 500 мс.

Релиз от:
Автор релиза: MusiCant



   Похожие торренты   Торрент   Размер 
В этой теме нет новых непрочитанных сообщений. NG: Национальные парки Америки. Большой каньон / America's National Parks. Grand Canyon (2015) HDTVRip-AVC от Kaztorrents | D

130 | 8

690.24 МБ

В этой теме нет новых непрочитанных сообщений. NG: Национальные парки Америки. Большой каньон / America's National Parks. Grand Canyon (2015) HDTVRip 720p | D

126 | 9

1.53 ГБ

В этой теме нет новых непрочитанных сообщений. NG: Национальные парки Америки. Йосемити / America's National Parks. Yosemite (2015) HDTVRip 720p | D

56 | 10

1.59 ГБ

В этой теме нет новых непрочитанных сообщений. NG: Национальные парки Америки. Олимпик / America's National Parks. Olympic (2015) HDTVRip от Kaztorrents | D

20 | 5

629.44 МБ

В этой теме нет новых непрочитанных сообщений. NG: Национальные парки Америки. Эверглейдс / America's National Parks. Everglades (2015) HDTVRip от Kaztorrents | D

8 | 7

628.18 МБ

В этой теме нет новых непрочитанных сообщений. NG: Национальные парки Америки. Эверглейдс / America's National Parks. Everglades (2015) HDTVRip 720p | D

28 | 6

1.52 ГБ

В этой теме нет новых непрочитанных сообщений. NG: Национальные парки Америки. Йеллоустоун / America's National Parks. Yellowstone (2015) HDTVRip 720p | D

106 | 11

1.53 ГБ




Вы не можете начинать темы
Вы не можете отвечать на сообщения
Вы не можете редактировать свои сообщения
Вы не можете удалять свои сообщения
Вы не можете добавлять вложения

Перейти:  
Для Мосгорсуда, Роскомнадзора и рекламодателей: mosgorsud-torrent[собачка]yandex.ru
 Вход
ppkBB3cker v.2 © 2008-2014 @ PPK
[ Time : 0.045s | 14 Queries | GZIP : Off ]

Торрент трекер RUTOR.IN, Не можете зайти на rutor.org? Какой новый адрес рутор? Какое зеркало рутор? Не работает rutor.org и зеркала? Тогда наш торрент специально для вас. Rutor.in неофициальное зеркало rutor. В случае если у Вас заблокирован rutor или вдруг Вы не можете на него зайти, то Вы без труда сможете скачать бесплатно и без рекламы последние новинки кино, игр, сериалов и прочего у нас, на Rutor.in. Не нужно использовать прокси, чтобы зайти на рутор, достаточно воспользоваться нашим ресурсом. Все новые фильмы, игры, сериалы, книги и музыка за 2013 и 2014 годы через торрент бесплатно. Скачивайте фильмы в хорошем качестве, игры для пк, xbox, playstation без регистрации. У нас вы найдете новые Зарубежные сериалы и Русские сериалы 2013, 2014, 2015 годов. Оставайтесь с нами, качайте любимые фильмы, игры, сериалы, книги и музыку.