img image001 image001 image001 image001 image001 image001 image001 image001 image001 image001 image001 image001 image001 image001 image001

Planets Sun Sun Sun
Статистика раздачи
Автор: Nickolas3434 | Размер: 627.59 МБ | Добавлен: 06 апр 2016
Раздают: 34    Качают: 3
Скачать торрент
Скачать торрент
Описание торрента

СообщениеДобавлено: 06 апр 2016 

Информация о фильме
Название: Национальные парки Америки. Йеллоустоун
Оригинальное название: America's National Parks. Yellowstone
Год выхода: 2015
Жанр: Документальный
Режиссер: Оливер Гётцль
О фильме:
Йеллоустоун - земля с "огненным сердцем". Первый Национальный парк Америки. Первозданная и неприступная крепость, защитившая природу запада от исчезновения. Ежегодно более 3 000 000 человек приезжают полюбоваться красотами Йеллоустоуна. Но лишь немногие решаются пройти дальше грозного стража - горного хребта и попасть в соседнюю долину, где разворачиваются поистине драматические события: старые распри, появление новой жизни и неожиданное проявление отваги. Йеллоустоун - настоящая жемчужина лесов и долин, он стал домом для большого стада бизонов, волчьих стай и поколений гризли. Подумайте дважды прежде чем сказать, что знаете Йеллоустоун. Таким вы его ещё не видели.
Страна: США
Студия: National Geographic
Продолжительность: 00:44:01
Перевод: Дублированный
Файл
Кодек: XviD
Качество: HDTVRip
Видео: 720x400 (16:9), 25 fps, XviD~ 1762 kbps avg, 0.245 bit/pixel
Аудио: 48 kHz, AC3 Dolby Digital, 2 ch, ~192 kbps
Релиз от
Автор Рипа: RockeT
General
Unique ID : 192954011609796008134091824339203541053 (0x912997443B83135A99845611D74E483D)
Complete name : C:UsersDesktopФильмыNG_America's National Parks_Yellowstone.HDTVRip.by RockeT [Virtus & KazTorrentS].avi
Format : Matroska
Format version : Version 2
File size : 628 MiB
Duration : 44mn 1s
Overall bit rate : 1 993 Kbps
Encoded date : UTC 2016-04-05 03:10:32
Writing application : mkvmerge v5.8.0 ('No Sleep / Pillow') built on Sep 2 2012 15:37:04
Writing library : libebml v1.2.3 + libmatroska v1.3.0
Video
ID : 1
Format : MPEG-4 Visual
Format profile : Advanced Simple@L5
Format settings, BVOP : Yes
Format settings, QPel : No
Format settings, GMC : No warppoints
Format settings, Matrix : Default (MPEG)
Codec ID : V_MS/VFW/FOURCC / XVID
Codec ID/Hint : XviD
Duration : 44mn 1s
Bit rate : 1 762 Kbps
Width : 720 pixels
Height : 400 pixels
Display aspect ratio : 16:9
Frame rate mode : Constant
Frame rate : 25.000 fps
Color space : YUV
Chroma subsampling : 4:2:0
Bit depth : 8 bits
Scan type : Progressive
Compression mode : Lossy
Bits/(Pixel*Frame) : 0.245
Stream size : 555 MiB (88%)
Writing library : XviD 1.2.1 (UTC 2008-12-04)
Default : Yes
Forced : No
Audio
ID : 2
Format : AC-3
Format/Info : Audio Coding 3
Mode extension : CM (complete main)
Format settings, Endianness : Big
Codec ID : A_AC3
Duration : 44mn 1s
Bit rate mode : Constant
Bit rate : 192 Kbps
Channel(s) : 2 channels
Channel positions : Front: L R
Sampling rate : 48.0 KHz
Bit depth : 16 bits
Compression mode : Lossy
Stream size : 60.5 MiB (10%)
Default : Yes
Forced : No



   Похожие торренты   Торрент   Размер 
В этой теме нет новых непрочитанных сообщений. NG: Национальные парки Америки. Йеллоустоун / America's National Parks. Yellowstone (2015) HDTVRip-AVC от Kaztorrents | D

213 | 24

690.61 МБ

В этой теме нет новых непрочитанных сообщений. NG: Национальные парки Америки. Йеллоустоун / America's National Parks. Yellowstone (2015) HDTVRip 720p | D

106 | 11

1.53 ГБ

В этой теме нет новых непрочитанных сообщений. NG: Национальные парки Америки. Эверглейдс / America's National Parks. Everglades (2015) HDTVRip от Kaztorrents | D

8 | 7

628.18 МБ

В этой теме нет новых непрочитанных сообщений. NG: Национальные парки Америки. Йосемити / America's National Parks. Yosemite (2015) HDTVRip от Kaztorrents | D

7 | 5

629.53 МБ

В этой теме нет новых непрочитанных сообщений. NG: Национальные парки Америки. Сагуаро / America's National Parks. Saguaro (2015) HDTVRip от Kaztorrents | D

4 | 6

629.55 МБ

В этой теме нет новых непрочитанных сообщений. NG: Национальные парки Америки. Олимпик / America's National Parks. Olympic (2015) HDTVRip от Kaztorrents | D

20 | 5

629.44 МБ

В этой теме нет новых непрочитанных сообщений. NG: Национальные парки Америки. Олимпик / America's National Parks. Olympic (2015) HDTVRip-AVC от Kaztorrents | D

75 | 8

690.37 МБ




Вы не можете начинать темы
Вы не можете отвечать на сообщения
Вы не можете редактировать свои сообщения
Вы не можете удалять свои сообщения
Вы не можете добавлять вложения

Перейти:  
Для Мосгорсуда, Роскомнадзора и рекламодателей: mosgorsud-torrent[собачка]yandex.ru
 Вход
ppkBB3cker v.2 © 2008-2014 @ PPK
[ Time : 0.582s | 15 Queries | GZIP : Off ]

Торрент трекер RUTOR.IN, Не можете зайти на rutor.org? Какой новый адрес рутор? Какое зеркало рутор? Не работает rutor.org и зеркала? Тогда наш торрент специально для вас. Rutor.in неофициальное зеркало rutor. В случае если у Вас заблокирован rutor или вдруг Вы не можете на него зайти, то Вы без труда сможете скачать бесплатно и без рекламы последние новинки кино, игр, сериалов и прочего у нас, на Rutor.in. Не нужно использовать прокси, чтобы зайти на рутор, достаточно воспользоваться нашим ресурсом. Все новые фильмы, игры, сериалы, книги и музыка за 2013 и 2014 годы через торрент бесплатно. Скачивайте фильмы в хорошем качестве, игры для пк, xbox, playstation без регистрации. У нас вы найдете новые Зарубежные сериалы и Русские сериалы 2013, 2014, 2015 годов. Оставайтесь с нами, качайте любимые фильмы, игры, сериалы, книги и музыку.