img image001 image001 image001 image001 image001 image001 image001 image001 image001 image001 image001 image001 image001 image001 image001

Planets Sun Sun Sun
Статистика раздачи
Автор: Nickolas3434 | Размер: 629.44 МБ | Добавлен: 08 апр 2016
Раздают: 20    Качают: 5
Скачать торрент
Скачать торрент
Описание торрента

СообщениеДобавлено: 08 апр 2016 

Информация о фильме
Название: Национальные парки Америки. Олимпик
Оригинальное название: America's National Parks. Olympic
Год выхода: 2015
Жанр: Документальный
Режиссер: Флориан Гранер
О фильме:
Национальный парк Олимпик поражает не только своей неудержимой энергией, но и одной уникальной особенностью - в нём представлены сразу три экосистемы: удалённое побережье Тихого океана, густой дождевой лес и суровая горная местность. На его побережьях, в лесах и вершинах обитает множество представителей дикого мира. Но немногим удаётся заглянуть в сердце этого заповедника и увидеть как драматические события разворачиваются в море или в небе. Здесь обитают гигантские существа, основные инстинкты побуждают их осуществлять изнурительные походы, звёзды светят в самых неожиданных местах, а на глубине прячутся хищники. В этом увлекательном путешествии вы познакомитесь с тайной жизнью национального парка Америки - Олимпик.
Страна: США
Студия: National Geographic
Продолжительность: 00:43:59
Перевод: Дублированный
Файл
Кодек: XviD
Качество: HDTVRip
Видео: 720x400 (16:9), 25 fps, XviD, ~1800 kbps avg, 0.250 bit/pixel
Аудио: 48 kHz, AC3 Dolby Digital, 2 ch, ~192 kbps
Релиз от
Автор Рипа: RockeT
General
Complete name : C:UsersDesktopФильмыNG_America's National Parks_Olympic.HDTVRip.by RockeT [Virtus & KazTorrentS].avi
Format : AVI
Format/Info : Audio Video Interleave
File size : 629 MiB
Duration : 43mn 59s
Overall bit rate : 2 000 Kbps
Writing application : VirtualDubMod 1.5.10.3 | www.virtualdub-fr.org || (build 2550/release)
Writing library : VirtualDubMod build 2550/release
Video
ID : 0
Format : MPEG-4 Visual
Format profile : Advanced Simple@L5
Format settings, BVOP : 1
Format settings, QPel : No
Format settings, GMC : No warppoints
Format settings, Matrix : Default (MPEG)
Codec ID : XVID
Codec ID/Hint : XviD
Duration : 43mn 59s
Bit rate : 1 799 Kbps
Width : 720 pixels
Height : 400 pixels
Display aspect ratio : 16:9
Frame rate : 25.000 fps
Color space : YUV
Chroma subsampling : 4:2:0
Bit depth : 8 bits
Scan type : Progressive
Compression mode : Lossy
Bits/(Pixel*Frame) : 0.250
Stream size : 566 MiB (90%)
Writing library : XviD 1.2.1 (UTC 2008-12-04)
Audio
ID : 1
Format : AC-3
Format/Info : Audio Coding 3
Mode extension : CM (complete main)
Format settings, Endianness : Big
Codec ID : 2000
Duration : 43mn 59s
Bit rate mode : Constant
Bit rate : 192 Kbps
Channel(s) : 2 channels
Channel positions : Front: L R
Sampling rate : 48.0 KHz
Bit depth : 16 bits
Compression mode : Lossy
Stream size : 60.4 MiB (10%)
Alignment : Split accross interleaves
Interleave, duration : 40 ms (1.00 video frame)
Interleave, preload duration : 500 ms




   Похожие торренты   Торрент   Размер 
В этой теме нет новых непрочитанных сообщений. NG: Национальные парки Америки. Олимпик / America's National Parks. Olympic (2015) HDTVRip-AVC от Kaztorrents | D

75 | 8

690.37 МБ

В этой теме нет новых непрочитанных сообщений. NG: Национальные парки Америки. Олимпик / America's National Parks. Olympic (2015) HDTVRip 720p | D

97 | 13

1.54 ГБ

В этой теме нет новых непрочитанных сообщений. NG: Национальные парки Америки. Эверглейдс / America's National Parks. Everglades (2015) HDTVRip от Kaztorrents | D

8 | 7

628.18 МБ

В этой теме нет новых непрочитанных сообщений. NG: Национальные парки Америки. Йеллоустоун / America's National Parks. Yellowstone (2015) HDTVRip-AVC от Kaztorrents | D

213 | 24

690.61 МБ

В этой теме нет новых непрочитанных сообщений. NG: Национальные парки Америки. Йеллоустоун / America's National Parks. Yellowstone (2015) HDTVRip от Kaztorrents | D

34 | 3

627.59 МБ

В этой теме нет новых непрочитанных сообщений. NG: Национальные парки Америки. Йосемити / America's National Parks. Yosemite (2015) HDTVRip от Kaztorrents | D

7 | 5

629.53 МБ

В этой теме нет новых непрочитанных сообщений. NG: Национальные парки Америки. Сагуаро / America's National Parks. Saguaro (2015) HDTVRip от Kaztorrents | D

4 | 6

629.55 МБ




Вы не можете начинать темы
Вы не можете отвечать на сообщения
Вы не можете редактировать свои сообщения
Вы не можете удалять свои сообщения
Вы не можете добавлять вложения

Перейти:  
Для Мосгорсуда, Роскомнадзора и рекламодателей: mosgorsud-torrent[собачка]yandex.ru
 Вход
ppkBB3cker v.2 © 2008-2014 @ PPK
[ Time : 0.028s | 15 Queries | GZIP : Off ]

Торрент трекер RUTOR.IN, Не можете зайти на rutor.org? Какой новый адрес рутор? Какое зеркало рутор? Не работает rutor.org и зеркала? Тогда наш торрент специально для вас. Rutor.in неофициальное зеркало rutor. В случае если у Вас заблокирован rutor или вдруг Вы не можете на него зайти, то Вы без труда сможете скачать бесплатно и без рекламы последние новинки кино, игр, сериалов и прочего у нас, на Rutor.in. Не нужно использовать прокси, чтобы зайти на рутор, достаточно воспользоваться нашим ресурсом. Все новые фильмы, игры, сериалы, книги и музыка за 2013 и 2014 годы через торрент бесплатно. Скачивайте фильмы в хорошем качестве, игры для пк, xbox, playstation без регистрации. У нас вы найдете новые Зарубежные сериалы и Русские сериалы 2013, 2014, 2015 годов. Оставайтесь с нами, качайте любимые фильмы, игры, сериалы, книги и музыку.