img image001 image001 image001 image001 image001 image001 image001 image001 image001 image001 image001 image001 image001 image001 image001

Planets Sun Sun Sun
Статистика раздачи
Автор: Nickolas3434 | Размер: 6.49 ГБ | Добавлен: 11 апр 2016
Раздают: 110    Качают: 20
Скачать торрент
Скачать торрент
Описание торрента

СообщениеДобавлено: 11 апр 2016 




Маленькие гиганты
Tiny Giants 3D



Год выпуска: 2014
Страна: Великобритания (BBC Earth)
Жанр: Документальный, Семейный, Короткометражка
Продолжительность: 00:43:19
Озвучка: Любительская одноголосая закадровая (перевод любительский - Ash61)
Режиссер: Марк Браунлоу / Mark Brownlow
Рассказчик (по-английски): Стивен Фрай / Stephen Fry


Описание: Короткометражка о том, что происходит под нами и вокруг нас. Бурундучок и маленький хомячок, живущие в противоположных климатических условиях, встречаются с приключениями. Они растут и узнают о жизни и ее трудностях.


Бонус: Фильм о съёмках фильма - Скрытые королевства / Hidden Kingdoms (подробнее - внизу под спойлером).


Премьера (мир): 24 мая 2014




Качество: BDRip (by Ash61)
Контейнер: MKV
Формат 3D: Half OverUnder / Вертикальная анаморфная стереопара
Порядок ракурсов: левый ракурс первый


Видео: AVC / 23,976 fps / 1920х1080p / 15.5 Mbps
Аудио:
#1 - Русский / AC3 / 48 KHz / 5.1 ch / 640 Kbps (VO) (перевод любительский Ash61)
#2 - Английский / AC3 / 48 KHz / 5.1 ch / 640 Kbps (Original - BD 3D)
Субтитры (внешние SRT UTF-8):
#1 - Русские Полные
#2 - English Full
#3 - English SDH
General
Unique ID : 199142640134168597632347594307535647443 (0x95D17A35D458BBE39D1DBB92DC9C32D3)
Complete name : E:TinyGiants(2014)3D-halfOU(Ash61)VOTinyGiants(2014)3D-halfOU(Ash61)VO.mkv
Format : Matroska
Format version : Version 2
File size : 5.17 GiB
Duration : 43mn 18s
Overall bit rate : 17.1 Mbps
Movie name : Маленькие гиганты / Tiny Giants 3D (2014) в 3Д
Encoded date : UTC 2016-04-03 12:31:50
Writing application : mkvmerge v5.8.0 ('No Sleep / Pillow') built on Sep 2 2012 15:37:04
Writing library : libebml v1.2.3 + libmatroska v1.3.0
Video
ID : 1
Format : AVC
Format/Info : Advanced Video Codec
Format profile : High@L4.1
Format settings, CABAC : Yes
Format settings, ReFrames : 4 frames
Codec ID : V_MPEG4/ISO/AVC
Duration : 43mn 18s
Bit rate : 15.5 Mbps
Width : 1 920 pixels
Height : 1 080 pixels
Display aspect ratio : 16:9
Frame rate mode : Constant
Frame rate : 23.976 fps
Color space : YUV
Chroma subsampling : 4:2:0
Bit depth : 8 bits
Scan type : Progressive
Bits/(Pixel*Frame) : 0.311
Stream size : 4.68 GiB (91%)
Title : BDRip by Ash61
Writing library : x264 core 146 r2538 121396c
Encoding settings : cabac=1 / ref=4 / deblock=1:-3:-3 / analyse=0x3:0x113 / me=umh / subme=10 / psy=1 / psy_rd=1.00:0.00 / mixed_ref=1 / me_range=32 / chroma_me=1 / trellis=2 / 8x8dct=1 / cqm=0 / deadzone=21,11 / fast_pskip=1 / chroma_qp_offset=-2 / threads=12 / lookahead_threads=3 / sliced_threads=0 / nr=0 / decimate=1 / interlaced=0 / bluray_compat=0 / constrained_intra=0 / bframes=10 / b_pyramid=2 / b_adapt=2 / b_bias=0 / direct=3 / weightb=1 / open_gop=0 / weightp=2 / keyint=250 / keyint_min=23 / scenecut=40 / intra_refresh=0 / rc_lookahead=60 / rc=crf / mbtree=1 / crf=16.0 / qcomp=0.70 / qpmin=0 / qpmax=69 / qpstep=4 / vbv_maxrate=40000 / vbv_bufsize=30000 / crf_max=0.0 / nal_hrd=none / filler=0 / frame-packing=4 / ip_ratio=1.40 / aq=1:0.70
Language : English
Default : Yes
Forced : No
Audio #1
ID : 2
Format : AC-3
Format/Info : Audio Coding 3
Mode extension : CM (complete main)
Format settings, Endianness : Big
Codec ID : A_AC3
Duration : 43mn 18s
Bit rate mode : Constant
Bit rate : 640 Kbps
Channel(s) : 6 channels
Channel positions : Front: L C R, Side: L R, LFE
Sampling rate : 48.0 KHz
Bit depth : 16 bits
Compression mode : Lossy
Stream size : 198 MiB (4%)
Title : Любительский одноголосый закадровый (перевод любительский - Ash61)
Language : Russian
Default : Yes
Forced : No
Audio #2
ID : 3
Format : AC-3
Format/Info : Audio Coding 3
Mode extension : CM (complete main)
Format settings, Endianness : Big
Codec ID : A_AC3
Duration : 43mn 18s
Bit rate mode : Constant
Bit rate : 640 Kbps
Channel(s) : 6 channels
Channel positions : Front: L C R, Side: L R, LFE
Sampling rate : 48.0 KHz
Bit depth : 16 bits
Compression mode : Lossy
Stream size : 198 MiB (4%)
Title : Original - BD 3D
Language : English
Default : No
Forced : No
Menu
00:00:00.000 : :1
00:11:40.158 : :2
00:21:36.212 : :3
00:35:31.671 : :4
00:41:59.517 : :5















Продолжительность: 00:08:45
Озвучка: Любительская одноголосая закадровая (перевод любительский - Ash61)


Видео: AVC / 23,976 fps / 1920х1080p / 20.7 Mbps
Аудио:
#1 - Русский / AC3 / 48 KHz / 2 ch / 192 Kbps (VO)
#2 - Английский / AC3 / 48 KHz / 2 ch / 192 Kbps (Original - BD 3D)
Субтитры (внешние SRT UTF-8):
#1 - Русские Полные
#2 - English Full
#3 - English SDH
General
Unique ID : 244088102047751799874876246597770969006 (0xB7A1A892293D4338B1E295DE13907FAE)
Complete name : E:TinyGiants(2014)3D-halfOU(Ash61)VOTinyGiants.HiddenKingdoms(2014)3D-halfOU(Ash61)VO.mkv
Format : Matroska
Format version : Version 2
File size : 1.32 GiB
Duration : 8mn 45s
Overall bit rate : 21.5 Mbps
Movie name : Маленькие гиганты. Скрытые королевства / Tiny Giants 3D. Hidden Kingdoms (2014) в 3Д
Encoded date : UTC 2016-04-03 12:30:50
Writing application : mkvmerge v5.8.0 ('No Sleep / Pillow') built on Sep 2 2012 15:37:04
Writing library : libebml v1.2.3 + libmatroska v1.3.0
Video
ID : 1
Format : AVC
Format/Info : Advanced Video Codec
Format profile : High@L4.1
Format settings, CABAC : Yes
Format settings, ReFrames : 4 frames
Codec ID : V_MPEG4/ISO/AVC
Duration : 8mn 45s
Bit rate : 20.7 Mbps
Width : 1 920 pixels
Height : 1 080 pixels
Display aspect ratio : 16:9
Frame rate mode : Constant
Frame rate : 23.976 fps
Color space : YUV
Chroma subsampling : 4:2:0
Bit depth : 8 bits
Scan type : Progressive
Bits/(Pixel*Frame) : 0.417
Stream size : 1.27 GiB (96%)
Title : BDRip by Ash61
Writing library : x264 core 146 r2538 121396c
Encoding settings : cabac=1 / ref=4 / deblock=1:-1:-1 / analyse=0x3:0x113 / me=umh / subme=10 / psy=1 / psy_rd=1.00:0.00 / mixed_ref=1 / me_range=32 / chroma_me=1 / trellis=2 / 8x8dct=1 / cqm=0 / deadzone=21,11 / fast_pskip=1 / chroma_qp_offset=-2 / threads=12 / lookahead_threads=3 / sliced_threads=0 / nr=0 / decimate=1 / interlaced=0 / bluray_compat=0 / constrained_intra=0 / bframes=10 / b_pyramid=2 / b_adapt=2 / b_bias=0 / direct=3 / weightb=1 / open_gop=0 / weightp=2 / keyint=250 / keyint_min=23 / scenecut=40 / intra_refresh=0 / rc_lookahead=60 / rc=crf / mbtree=1 / crf=17.0 / qcomp=0.70 / qpmin=0 / qpmax=69 / qpstep=4 / vbv_maxrate=40000 / vbv_bufsize=30000 / crf_max=0.0 / nal_hrd=none / filler=0 / frame-packing=4 / ip_ratio=1.40 / aq=1:0.70
Language : English
Default : Yes
Forced : No
Audio #1
ID : 2
Format : AC-3
Format/Info : Audio Coding 3
Mode extension : CM (complete main)
Format settings, Endianness : Big
Codec ID : A_AC3
Duration : 8mn 45s
Bit rate mode : Constant
Bit rate : 192 Kbps
Channel(s) : 2 channels
Channel positions : Front: L R
Sampling rate : 48.0 KHz
Bit depth : 16 bits
Compression mode : Lossy
Stream size : 12.0 MiB (1%)
Title : Любительский одноголосый закадровый (перевод любительский - Ash61)
Language : Russian
Default : Yes
Forced : No
Audio #2
ID : 3
Format : AC-3
Format/Info : Audio Coding 3
Format profile : Dolby Digital
Mode extension : CM (complete main)
Format settings, Endianness : Big
Codec ID : A_AC3
Duration : 8mn 45s
Bit rate mode : Constant
Bit rate : 192 Kbps
Channel(s) : 2 channels
Channel positions : Front: L R
Sampling rate : 48.0 KHz
Bit depth : 16 bits
Compression mode : Lossy
Stream size : 12.0 MiB (1%)
Title : Original - BD 3D
Language : English
Default : No
Forced : No











   Похожие торренты   Торрент   Размер 
В этой теме нет новых непрочитанных сообщений. Маленькие монстры: Спрятаться и обмануть / Little Monsters: Hide and Cheat (2012) BDRip 1080p от Ash61 | 3D-Video | halfOU | D

382 | 36

7.48 ГБ

В этой теме нет новых непрочитанных сообщений. Маленькие гиганты / Little Giants (1994) WEB-DLRip от New-Team

21 | 15

1.75 ГБ

В этой теме нет новых непрочитанных сообщений. Динозавры: Гиганты Патагонии / Dinosaurs: Giants of Patagonia (2007) BDRip 1080p | 3D-Video

21 | 8

4.89 ГБ

В этой теме нет новых непрочитанных сообщений. Ной / Noah (2014) BDRip 1080p от Ash61 | 3D-Video | halfOU

1157 | 284

11.44 ГБ

В этой теме нет новых непрочитанных сообщений. Рио 2 / Rio 2 (2014) BDRip 1080p от Ash61 | 3D-Video | halfOU | Лицензия

1224 | 222

7.63 ГБ

В этой теме нет новых непрочитанных сообщений. Рио 2 / Rio 2 (2014) BDRip 1080p от Ash61 | 3D-Video | halfOU | Line

1069 | 272

7.14 ГБ

В этой теме нет новых непрочитанных сообщений. Лава / Lava (2014) BDRip 1080p от Ash61 | 3D-Video | halfOU

290 | 18

485.76 МБ




Вы не можете начинать темы
Вы не можете отвечать на сообщения
Вы не можете редактировать свои сообщения
Вы не можете удалять свои сообщения
Вы не можете добавлять вложения

Перейти:  
Для Мосгорсуда, Роскомнадзора и рекламодателей: mosgorsud-torrent[собачка]yandex.ru
 Вход
ppkBB3cker v.2 © 2008-2014 @ PPK
[ Time : 2.536s | 15 Queries | GZIP : Off ]

Торрент трекер RUTOR.IN, Не можете зайти на rutor.org? Какой новый адрес рутор? Какое зеркало рутор? Не работает rutor.org и зеркала? Тогда наш торрент специально для вас. Rutor.in неофициальное зеркало rutor. В случае если у Вас заблокирован rutor или вдруг Вы не можете на него зайти, то Вы без труда сможете скачать бесплатно и без рекламы последние новинки кино, игр, сериалов и прочего у нас, на Rutor.in. Не нужно использовать прокси, чтобы зайти на рутор, достаточно воспользоваться нашим ресурсом. Все новые фильмы, игры, сериалы, книги и музыка за 2013 и 2014 годы через торрент бесплатно. Скачивайте фильмы в хорошем качестве, игры для пк, xbox, playstation без регистрации. У нас вы найдете новые Зарубежные сериалы и Русские сериалы 2013, 2014, 2015 годов. Оставайтесь с нами, качайте любимые фильмы, игры, сериалы, книги и музыку.