img image001 image001 image001 image001 image001 image001 image001 image001 image001 image001 image001 image001 image001 image001 image001

Planets Sun Sun Sun
Статистика раздачи
Автор: Nickolas3434 | Размер: 629.59 МБ | Добавлен: 14 апр 2016
Раздают: 12    Качают: 0
Скачать торрент
Скачать торрент
Описание торрента

СообщениеДобавлено: 14 апр 2016 

Информация о фильме
Название: Национальные парки Америки. Грейт-Смоки-Маунтинс
Оригинальное название: America's National Parks. Great Smoky Mountain
Год выхода: 2015
Жанр: Документальный
Режиссер: Джан Хафт
О фильме:
Есть место в Северной Америке, где, словно, открывается вход в средиземье, волшебный и невиданный край. Пышные леса и роскошные луга национального парка Грейт-Смоки-Маунтинс переливаются калейдоскопом чарующих осенних цветов. Здесь, в горах и долинах Национального парка Америки Грейт-Смоки-Маунтинс, между братьями назревает кровная вражда, отец строит необычное гнездо, а мать, как водится, учит детёнышей выживать. Это сказочный мир огня без дыма и дыма без огня. Что бы организовать этот уникальный парк пришлось собирать его территорию по кусочкам, как огромное лоскутное одеяло, выкупить участки у людей и вернуть их природе. Писатель, Томас Вулф, который родился в этих горах, сказал: "... домой возврата нет", но олени вапити и весь парк Грейт-Смоки-Маунтинс доказали обратное - вернуться возможно
Страна: США
Студия: National Geographic
Продолжительность: 00:43:58
Перевод: Дублированный
Файл
Кодек: XviD
Качество: HDTVRip
Видео: 720x400 (16:9), 25 fps, XviD, 1800 kbps avg, 0.250 bit/pixel
Аудио: 48 kHz, AC3 Dolby Digital, 2 ch, ~192 kbps
Релиз от
Автор Рипа: RockeT
General
Complete name : C:UsersDesktopФильмыNG_America's National Parks_Great Smoky Mountain.HDTVRip.by RockeT [Virtus & KazTorrentS].avi
Format : AVI
Format/Info : Audio Video Interleave
File size : 630 MiB
Duration : 43mn 58s
Overall bit rate : 2 001 Kbps
Writing application : VirtualDubMod 1.5.10.3 | www.virtualdub-fr.org || (build 2550/release)
Writing library : VirtualDubMod build 2550/release
Video
ID : 0
Format : MPEG-4 Visual
Format profile : Advanced Simple@L5
Format settings, BVOP : 1
Format settings, QPel : No
Format settings, GMC : No warppoints
Format settings, Matrix : Default (MPEG)
Codec ID : XVID
Codec ID/Hint : XviD
Duration : 43mn 58s
Bit rate : 1 800 Kbps
Width : 720 pixels
Height : 400 pixels
Display aspect ratio : 16:9
Frame rate : 25.000 fps
Color space : YUV
Chroma subsampling : 4:2:0
Bit depth : 8 bits
Scan type : Progressive
Compression mode : Lossy
Bits/(Pixel*Frame) : 0.250
Stream size : 566 MiB (90%)
Writing library : XviD 1.2.1 (UTC 2008-12-04)
Audio
ID : 1
Format : AC-3
Format/Info : Audio Coding 3
Mode extension : CM (complete main)
Format settings, Endianness : Big
Codec ID : 2000
Duration : 43mn 58s
Bit rate mode : Constant
Bit rate : 192 Kbps
Channel(s) : 2 channels
Channel positions : Front: L R
Sampling rate : 48.0 KHz
Compression mode : Lossy
Stream size : 60.4 MiB (10%)
Alignment : Split accross interleaves
Interleave, duration : 40 ms (1.00 video frame)
Interleave, preload duration : 500 ms




   Похожие торренты   Торрент   Размер 
В этой теме нет новых непрочитанных сообщений. NG: Национальные парки Америки. Грейт-Смоки-Маунтинс / America's National Parks. Great Smoky Mountain (2015) HDTVRip 720p | D

33 | 7

1.51 ГБ

В этой теме нет новых непрочитанных сообщений. NG: Национальные парки Америки. Сагуаро / America's National Parks. Saguaro (2015) HDTVRip от Kaztorrents | D

0 | 10

629.55 МБ

В этой теме нет новых непрочитанных сообщений. NG: Национальные парки Америки. Олимпик / America's National Parks. Olympic (2015) HDTVRip-AVC от Kaztorrents | D

43 | 2

690.37 МБ

В этой теме нет новых непрочитанных сообщений. NG: Национальные парки Америки. Йосемити / America's National Parks. Yosemite (2015) HDTVRip от Kaztorrents | D

3 | 0

629.53 МБ

В этой теме нет новых непрочитанных сообщений. NG: Национальные парки Америки. Олимпик / America's National Parks. Olympic (2015) HDTVRip от Kaztorrents | D

4 | 1

629.44 МБ

В этой теме нет новых непрочитанных сообщений. NG: Национальные парки Америки. Йеллоустоун / America's National Parks. Yellowstone (2015) HDTVRip-AVC от Kaztorrents | D

80 | 4

690.61 МБ

В этой теме нет новых непрочитанных сообщений. NG: Национальные парки Америки. Эверглейдс / America's National Parks. Everglades (2015) HDTVRip от Kaztorrents | D

4 | 0

628.18 МБ




Вы не можете начинать темы
Вы не можете отвечать на сообщения
Вы не можете редактировать свои сообщения
Вы не можете удалять свои сообщения
Вы не можете добавлять вложения

Перейти:  
Для Мосгорсуда, Роскомнадзора и рекламодателей: mosgorsud-torrent[собачка]yandex.ru
 Вход
ppkBB3cker v.2 © 2008-2014 @ PPK
[ Time : 0.042s | 16 Queries | GZIP : Off ]

cron