img image001 image001 image001 image001 image001 image001 image001 image001 image001 image001 image001 image001 image001 image001 image001

Planets Sun Sun Sun
Статистика раздачи
Автор: Nickolas3434 | Размер: 628.91 МБ | Добавлен: 16 апр 2016
Раздают: 58    Качают: 3
Скачать торрент
Скачать торрент
Описание торрента

СообщениеДобавлено: 16 апр 2016 

Информация о фильме
Название: Космическое путешествие "Хаббла"
Оригинальное название: Hubble's Cosmic Journey
Год выхода: 2014
Жанр: Документальный, космос
Режиссер: Кристофер Рилей
О фильме:
Это история о телескопе, чуть не разорившим NASA, одного из величайших инструментов науки - телескопе "Хаббл". Она рассказана людьми, которые спроектировали и построили его, которые рисковали жизнью, что бы исправить его и которые используют его сегодня, что бы удивлять нас.
Страна: США
Студия: National Geographic
Продолжительность: 00:43:55
Перевод: Дублированный
Файл
Кодек: XviD
Качество: HDTVRip
Видео: 720x400 (16:9), 25 fps, XviD, 1800 kbps avg, 0.250 bit/pixel
Аудио: 48 kHz, AC3 Dolby Digital, 2 ch, ~192 kbps
Релиз от
Автор Рипа: RockeT
General
Complete name : C:UsersDesktopФильмыNG_Hubbles_Cosmic_Journey.HDTVRip.by RockeT [Virtus & KazTorrentS].avi
Format : AVI
Format/Info : Audio Video Interleave
File size : 629 MiB
Duration : 43mn 55s
Overall bit rate : 2 002 Kbps
Writing application : VirtualDubMod 1.5.10.3 | www.virtualdub-fr.org || (build 2550/release)
Writing library : VirtualDubMod build 2550/release
Video
ID : 0
Format : MPEG-4 Visual
Format profile : Advanced Simple@L5
Format settings, BVOP : 1
Format settings, QPel : No
Format settings, GMC : No warppoints
Format settings, Matrix : Default (MPEG)
Codec ID : XVID
Codec ID/Hint : XviD
Duration : 43mn 55s
Bit rate : 1 800 Kbps
Width : 720 pixels
Height : 400 pixels
Display aspect ratio : 16:9
Frame rate : 25.000 fps
Color space : YUV
Chroma subsampling : 4:2:0
Bit depth : 8 bits
Scan type : Progressive
Compression mode : Lossy
Bits/(Pixel*Frame) : 0.250
Stream size : 566 MiB (90%)
Writing library : XviD 1.2.1 (UTC 2008-12-04)
Audio
ID : 1
Format : AC-3
Format/Info : Audio Coding 3
Mode extension : CM (complete main)
Format settings, Endianness : Big
Codec ID : 2000
Duration : 43mn 55s
Bit rate mode : Constant
Bit rate : 192 Kbps
Channel(s) : 2 channels
Channel positions : Front: L R
Sampling rate : 48.0 KHz
Compression mode : Lossy
Stream size : 60.3 MiB (10%)
Alignment : Split accross interleaves
Interleave, duration : 40 ms (1.00 video frame)
Interleave, preload duration : 500 ms




   Похожие торренты   Торрент   Размер 
В этой теме нет новых непрочитанных сообщений. Картины Хаббла / Hubble's Canvas (2007) SATRip

5 | 2

710.17 МБ

В этой теме нет новых непрочитанных сообщений. Большое космическое путешествие (1974) DVDRip

69 | 28

740.99 МБ

В этой теме нет новых непрочитанных сообщений. Большое космическое путешествие (1974) DVDRip

29 | 8

1.09 ГБ

В этой теме нет новых непрочитанных сообщений. Большое космическое путешествие (1975) DVDRip-AVC от MediaClub

76 | 5

1.34 ГБ

В этой теме нет новых непрочитанных сообщений. BBC: Рассвет во Вселенной. Момент сотворения мира / Cosmic Dawn: The Real Moment of Creation (2015) HDTVRip от Kaztorrents | P1

85 | 5

739 МБ

В этой теме нет новых непрочитанных сообщений. Spacekraft - Большое космическое путешествие (Астра 2016) FLAC

22 | 2

678.79 МБ

В этой теме нет новых непрочитанных сообщений. NG: Начало / Происхождение: Путешествие человечества / Origins: The Journey of Humankind [01 из 08] (2017) HDTVRip от Kaztorrents | P1

0 | 0

1.28 ГБ




Вы не можете начинать темы
Вы не можете отвечать на сообщения
Вы не можете редактировать свои сообщения
Вы не можете удалять свои сообщения
Вы не можете добавлять вложения

Перейти:  
Для Мосгорсуда, Роскомнадзора и рекламодателей: mosgorsud-torrent[собачка]yandex.ru
 Вход
ppkBB3cker v.2 © 2008-2014 @ PPK
[ Time : 0.044s | 18 Queries | GZIP : Off ]

cron