img image001 image001 image001 image001 image001 image001 image001 image001 image001 image001 image001 image001 image001 image001 image001

Planets Sun Sun Sun
Статистика раздачи
Автор: Nickolas3434 | Размер: 608.59 МБ | Добавлен: 20 апр 2016
Раздают: 16    Качают: 3
Скачать торрент
Скачать торрент
Описание торрента

СообщениеДобавлено: 20 апр 2016 

Информация о фильме
Название: Национальные парки Америки. Арктические врата
Оригинальное название: America's National Parks. Gates of the Arctic
Год выхода: 2015
Жанр: Документальный
Режиссер: Уве Андерс
О фильме:
Национальный парк Америки Арктические врата расположен в труднодоступном краю. Это самый недоступный национальный парк Америки, дикая природа которого находится вдали от цивилизации. Не каждый здесь сможет выжить зимой. Заповедник находится за полярным кругом, где в девственной местности нет дорог, троп, площадок для лагерей и почти отсутствуют посетители. Это одно из последних девственных мест на Земле, дикий край где происходят, поистине, дикие события. Нужно очень сильно захотеть добраться сюда и тогда вы получите достойную награду. Среди заснеженных гор и бесконечных песчаных дюн вы увидите сражения хищных зверей крайнего севера, станете свидетелем миграций, которые проходят десятки тысяч лет, посмотрите на создания ледникового периода и полюбуетесь невыразимо милыми животными. Если хотите сбежать от городской жизни отправляйтесь в Национальный парк Америки Арктические врата.
Страна: США
Студия: National Geographic
Продолжительность: 00:42:33
Перевод: Дублированный
Файл
Кодек: XviD
Качество: HDTVRip
Видео: 720x400 (16:9), 25 fps, XviD, 1797 kbps avg, 0.250 bit/pixel
Аудио: 48 kHz, AC3 Dolby Digital, 2 ch, ~192 kbps
Релиз от
Автор Рипа: RockeT
General
Complete name : C:UsersDesktopФильмыNG_America's National Parks_Gates of the Arctic.HDTVRip.by RockeT [Virtus & KazTorrentS].avi
Format : AVI
Format/Info : Audio Video Interleave
File size : 609 MiB
Duration : 42mn 33s
Overall bit rate : 1 999 Kbps
Writing application : VirtualDubMod 1.5.10.3 | www.virtualdub-fr.org || (build 2550/release)
Writing library : VirtualDubMod build 2550/release
Video
ID : 0
Format : MPEG-4 Visual
Format profile : Advanced Simple@L5
Format settings, BVOP : 1
Format settings, QPel : No
Format settings, GMC : No warppoints
Format settings, Matrix : Default (MPEG)
Codec ID : XVID
Codec ID/Hint : XviD
Duration : 42mn 33s
Bit rate : 1 797 Kbps
Width : 720 pixels
Height : 400 pixels
Display aspect ratio : 16:9
Frame rate : 25.000 fps
Color space : YUV
Chroma subsampling : 4:2:0
Bit depth : 8 bits
Scan type : Progressive
Compression mode : Lossy
Bits/(Pixel*Frame) : 0.250
Stream size : 547 MiB (90%)
Writing library : XviD 1.2.1 (UTC 2008-12-04)
Audio
ID : 1
Format : AC-3
Format/Info : Audio Coding 3
Mode extension : CM (complete main)
Format settings, Endianness : Big
Codec ID : 2000
Duration : 42mn 33s
Bit rate mode : Constant
Bit rate : 192 Kbps
Channel(s) : 2 channels
Channel positions : Front: L R
Sampling rate : 48.0 KHz
Compression mode : Lossy
Stream size : 58.5 MiB (10%)
Alignment : Split accross interleaves
Interleave, duration : 40 ms (1.00 video frame)
Interleave, preload duration : 500 ms




   Похожие торренты   Торрент   Размер 
В этой теме нет новых непрочитанных сообщений. NG: Национальные парки Америки. Арктические врата / America's National Parks. Gates of the Arctic (2015) HDTVRip 720p | D

9 | 12

1.48 ГБ

В этой теме нет новых непрочитанных сообщений. NG: Национальные парки Америки. Йосемити / America's National Parks. Yosemite (2015) HDTVRip от Kaztorrents | D

3 | 0

629.53 МБ

В этой теме нет новых непрочитанных сообщений. NG: Национальные парки Америки. Сагуаро / America's National Parks. Saguaro (2015) HDTVRip от Kaztorrents | D

0 | 10

629.55 МБ

В этой теме нет новых непрочитанных сообщений. NG: Национальные парки Америки. Йеллоустоун / America's National Parks. Yellowstone (2015) HDTVRip-AVC от Kaztorrents | D

80 | 4

690.61 МБ

В этой теме нет новых непрочитанных сообщений. NG: Национальные парки Америки. Олимпик / America's National Parks. Olympic (2015) HDTVRip-AVC от Kaztorrents | D

43 | 2

690.37 МБ

В этой теме нет новых непрочитанных сообщений. NG: Национальные парки Америки. Эверглейдс / America's National Parks. Everglades (2015) HDTVRip от Kaztorrents | D

4 | 0

628.18 МБ

В этой теме нет новых непрочитанных сообщений. NG: Национальные парки Америки. Олимпик / America's National Parks. Olympic (2015) HDTVRip от Kaztorrents | D

4 | 1

629.44 МБ




Вы не можете начинать темы
Вы не можете отвечать на сообщения
Вы не можете редактировать свои сообщения
Вы не можете удалять свои сообщения
Вы не можете добавлять вложения

Перейти:  
Для Мосгорсуда, Роскомнадзора и рекламодателей: mosgorsud-torrent[собачка]yandex.ru
 Вход
ppkBB3cker v.2 © 2008-2014 @ PPK
[ Time : 0.707s | 16 Queries | GZIP : Off ]

cron