img image001 image001 image001 image001 image001 image001 image001 image001 image001 image001 image001 image001 image001 image001 image001

Planets Sun Sun Sun
Статистика раздачи
Автор: Nickolas3434 | Размер: 1.45 ГБ | Добавлен: 13 май 2016
Раздают: 156    Качают: 4
Скачать торрент
Скачать торрент
Описание торрента

СообщениеДобавлено: 13 май 2016 

Гонка на вымирание / Racing Extinction

«Winning is the only option»

Русское название: Гонка на вымирание
Оригинальное название: Racing Extinction
Год выпуска: 2015
Жанр: Документальный, наука, экология
Выпущено: США, Великобритания, Япония, Мексика, Гонконг, Китай, Индонезия
Режиссер: Луи Сахойос
В ролях: Элон Маск , Луи Сахойос , Джейн Гудолл , Лейлани Мюнтер , Чарльз Хэмблетон , Джоэль Сартор , Шон Хайнрихс , Travis Threlkel , Остин Ричардс , Хезер Доун Ралли , Пол Хилтон , Dr. Christopher W. Clark
Перевод: Профессиональный многоголосый

Сюжет фильма:
Группа энергичных и неравнодушных активистов поставила перед собой цель пролить свет на две основные угрозы живой природе на Земле. Первая исходит от международной торговли животными и растениями и всевозможных лже-лекарств и тоников, которые производятся в ущерб фауне и потом продаются, ставя под угрозу существование целых видов живых существ, населяющих нашу планету вот уже миллионы лет. Вторая - скрытые выбросы углекислого газа, смертельные для живых организмов.

Качество: BDRip-AVC
Формат: AVC (библиотека кодирования x.264)
Контейнер (Расширение): MKV
Видео: 960x540, 2151 Кбит/сек, 25 кадр/сек, 0,166 Бит/[Пиксели*Кадры]
Аудио: русский / AC3 / 2.0 / 48 kHz / 224 kbps / |Профессиональный многоголосый, АРК ТВ "Discovery"|
Субтитры: английские
Навигация по главам(Чаптеры): есть
Продолжительность: 01:27:30
Автор рипа: Сообщество:

Format : Matroska
Format version : Version 2
File size : 1.45 GiB
Duration : 1h 27mn
Overall bit rate : 2 376 Kbps
Movie name : Racing Extinction.(2015).BDRip-AVC.[denis100]
Encoded date : UTC 2016-05-12 06:17:58
Writing application : mkvmerge v5.8.0 ('No Sleep / Pillow') built on Sep 2 2012 15:37:04
Writing library : libebml v1.2.3 + libmatroska v1.3.0
Video
ID : 1
Format : AVC
Format/Info : Advanced Video Codec
Format profile : High@L4.1
Format settings, CABAC : Yes
Format settings, ReFrames : 11 frames
Codec ID : V_MPEG4/ISO/AVC
Duration : 1h 27mn
Bit rate : 2 151 Kbps
Width : 960 pixels
Height : 540 pixels
Display aspect ratio : 16:9
Frame rate : 25.000 fps
Color space : YUV
Chroma subsampling : 4:2:0
Bit depth : 8 bits
Scan type : Progressive
Bits/(Pixel*Frame) : 0.166
Stream size : 1.29 GiB (89%)
Title : Racing Extinction.(2015).BDRip-AVC.[denis100]
Writing library : x264 core 148 r2692 64f4e24
Encoding settings : cabac=1 / ref=11 / deblock=1:-3:-3 / analyse=0x3:0x133 / me=umh / subme=11 / psy=1 / psy_rd=1.00:0.00 / mixed_ref=1 / me_range=32 / chroma_me=1 / trellis=2 / 8x8dct=1 / cqm=0 / deadzone=21,11 / fast_pskip=0 / chroma_qp_offset=-2 / threads=6 / lookahead_threads=1 / sliced_threads=0 / nr=0 / decimate=1 / interlaced=0 / bluray_compat=0 / constrained_intra=0 / bframes=12 / b_pyramid=2 / b_adapt=2 / b_bias=0 / direct=3 / weightb=1 / open_gop=0 / weightp=2 / keyint=250 / keyint_min=25 / scenecut=40 / intra_refresh=0 / rc=2pass / mbtree=0 / bitrate=2151 / ratetol=1.0 / qcomp=0.60 / qpmin=0 / qpmax=69 / qpstep=4 / cplxblur=20.0 / qblur=0.5 / ip_ratio=1.40 / pb_ratio=1.30 / aq=1:1.00
Language : English
Default : Yes
Forced : No
Audio
ID : 2
Format : AC-3
Format/Info : Audio Coding 3
Format profile : Dolby Digital
Mode extension : CM (complete main)
Codec ID : A_AC3
Duration : 1h 27mn
Bit rate mode : Constant
Bit rate : 224 Kbps
Channel(s) : 2 channels
Channel positions : Front: L R
Sampling rate : 48.0 KHz
Bit depth : 16 bits
Compression mode : Lossy
Stream size : 140 MiB (9%)
Title : MVO - АРК ТВ "Discovery"
Language : Russian
Default : Yes
Forced : No
Text
ID : 3
Format : UTF-8
Codec ID : S_TEXT/UTF8
Codec ID/Info : UTF-8 Plain Text
Language : English
Default : No
Forced : No
Menu
00:00:00.000 : en:Chapter 01
00:10:50.920 : en:Chapter 02
00:23:41.840 : en:Chapter 03
00:29:29.000 : en:Chapter 04
00:36:38.360 : en:Chapter 05
00:42:51.000 : en:Chapter 06
00:46:47.840 : en:Chapter 07
00:55:00.600 : en:Chapter 08
01:06:01.040 : en:Chapter 09
01:17:07.560 : en:Chapter 10



   Похожие торренты   Торрент   Размер 
В этой теме нет новых непрочитанных сообщений. Гонка на вымирание / Racing Extinction (2015) BDRip 720p от NNNB | P

129 | 12

3.74 ГБ

В этой теме нет новых непрочитанных сообщений. Discovery. Гонка на вымирание / Racing Extinction (2015) HDTVRip от GeneralFilm | P2

510 | 41

1.08 ГБ

В этой теме нет новых непрочитанных сообщений. Discovery. Гонка на вымирание / Racing Extinction (2015) HDTV 1080i от GeneralFilm | P2

274 | 16

4.61 ГБ

В этой теме нет новых непрочитанных сообщений. Вымирание / Extinction (2015) BDRip-AVC от HELLYWOOD | Лицензия

7649 | 326

1.41 ГБ

В этой теме нет новых непрочитанных сообщений. Вымирание / Extinction (2015) BDRip 1080p | iTunes

282 | 21

8.46 ГБ

В этой теме нет новых непрочитанных сообщений. Вымирание / Extinction (2015) BDRip 720p | iTunes

1233 | 32

5.65 ГБ

В этой теме нет новых непрочитанных сообщений. Вымирание / Extinction (2015) BDRip-AVC от New-Team | iTunes

132 | 8

1.4 ГБ




Вы не можете начинать темы
Вы не можете отвечать на сообщения
Вы не можете редактировать свои сообщения
Вы не можете удалять свои сообщения
Вы не можете добавлять вложения

Перейти:  
Для Мосгорсуда, Роскомнадзора и рекламодателей: mosgorsud-torrent[собачка]yandex.ru
 Вход
ppkBB3cker v.2 © 2008-2014 @ PPK
[ Time : 1.157s | 15 Queries | GZIP : Off ]

Торрент трекер RUTOR.IN, Не можете зайти на rutor.org? Какой новый адрес рутор? Какое зеркало рутор? Не работает rutor.org и зеркала? Тогда наш торрент специально для вас. Rutor.in неофициальное зеркало rutor. В случае если у Вас заблокирован rutor или вдруг Вы не можете на него зайти, то Вы без труда сможете скачать бесплатно и без рекламы последние новинки кино, игр, сериалов и прочего у нас, на Rutor.in. Не нужно использовать прокси, чтобы зайти на рутор, достаточно воспользоваться нашим ресурсом. Все новые фильмы, игры, сериалы, книги и музыка за 2013 и 2014 годы через торрент бесплатно. Скачивайте фильмы в хорошем качестве, игры для пк, xbox, playstation без регистрации. У нас вы найдете новые Зарубежные сериалы и Русские сериалы 2013, 2014, 2015 годов. Оставайтесь с нами, качайте любимые фильмы, игры, сериалы, книги и музыку.