img image001 image001 image001 image001 image001 image001 image001 image001 image001 image001 image001 image001 image001 image001 image001

Planets Sun Sun Sun
Статистика раздачи
Автор: Nickolas3434 | Размер: 697.62 МБ | Добавлен: 21 май 2016
Раздают: 361    Качают: 4
Скачать торрент
Скачать торрент
Описание торрента

СообщениеДобавлено: 21 май 2016 

Информация о фильме
Название: BBC: Тайны тёмной энергии
Оригинальное название: The Mysteries of Dark Energy
Год выхода: 2015
Жанр: Документальный
Режиссер: Марк Радис
О фильме:
Общая теория относительности Эйнштейна до сих пор является одним из столпов современной физики. Но спустя 100 лет после появления этой теории ученые продвинулись дальше - обнаружили и рассчитали новый вид энергии во Вселенной. Так называемую Темную Энергию. Что это такое? Авторы фильма постараются разобраться...
Страна: США
Студия: National Geographic
Продолжительность: 00:48:50
Перевод: Дублированный
Файл
Кодек: XviD
Качество: HDTVRip
Видео: 720x400 (16:9), 25 fps, XviD, 1800 kbps avg, 0.250 bit/pixel
Аудио: 48 kHz, AC3 Dolby Digital, 2 ch, ~192 kbps
Релиз от
Автор Рипа: RockeT
General
Complete name : C:UsersDesktopФильмыBBC_The Mystery of Dark Energy.HDTVRip.by RockeT [Virtus & KazTorrentS].avi
Format : AVI
Format/Info : Audio Video Interleave
File size : 698 MiB
Duration : 48mn 43s
Overall bit rate : 2 002 Kbps
Writing application : VirtualDubMod 1.5.10.3 | www.virtualdub-fr.org || (build 2550/release)
Writing library : VirtualDubMod build 2550/release
Video
ID : 0
Format : MPEG-4 Visual
Format profile : Advanced Simple@L5
Format settings, BVOP : 1
Format settings, QPel : No
Format settings, GMC : No warppoints
Format settings, Matrix : Default (MPEG)
Codec ID : XVID
Codec ID/Hint : XviD
Duration : 48mn 43s
Bit rate : 1 800 Kbps
Width : 720 pixels
Height : 400 pixels
Display aspect ratio : 16:9
Frame rate : 25.000 fps
Color space : YUV
Chroma subsampling : 4:2:0
Bit depth : 8 bits
Scan type : Progressive
Compression mode : Lossy
Bits/(Pixel*Frame) : 0.250
Stream size : 627 MiB (90%)
Writing library : XviD 1.2.1 (UTC 2008-12-04)
Audio
ID : 1
Format : AC-3
Format/Info : Audio Coding 3
Mode extension : CM (complete main)
Format settings, Endianness : Big
Codec ID : 2000
Duration : 48mn 43s
Bit rate mode : Constant
Bit rate : 192 Kbps
Channel(s) : 2 channels
Channel positions : Front: L R
Sampling rate : 48.0 KHz
Compression mode : Lossy
Stream size : 66.9 MiB (10%)
Alignment : Split accross interleaves
Interleave, duration : 40 ms (1.00 video frame)
Interleave, preload duration : 500 ms




   Похожие торренты   Торрент   Размер 
В этой теме нет новых непрочитанных сообщений. Энергия из вакуума. Часть 5 - Скрытая электродинамика и последний секрет свободной энергии / Energy from the vacuum. Part 5 - Hidden Electrodynamics and final secret of free energy (2008) DVDRip

35 | 5

239.18 МБ

В этой теме нет новых непрочитанных сообщений. Тайны темных джунглей / Mysteries of the dark jungle / I misteri della giungla nera (1991) DVDRip | P2

31 | 7

3.54 ГБ

В этой теме нет новых непрочитанных сообщений. Восход тёмной луны / Оборотень / Dark Moon Rising (2015) DVD-9 | L1

41 | 6

5.2 ГБ

В этой теме нет новых непрочитанных сообщений. Восход тёмной луны / Оборотень / Dark Moon Rising (2015) HDRip | L1

1016 | 98

1.23 ГБ

В этой теме нет новых непрочитанных сообщений. Восход тёмной луны / Dark Moon Rising (2015) HDRip от ExKinoRay | L1

753 | 26

1.37 ГБ

В этой теме нет новых непрочитанных сообщений. Восход тёмной луны / Оборотень / Dark Moon Rising (2015) HDRip | L1

300 | 20

1.36 ГБ

В этой теме нет новых непрочитанных сообщений. Тайны замков / Mysteries at the Castle / Castle Secrets & Legends [02х01-02 из 13] (2015) HDTVRip от GeneralFilm | D

19 | 3

2.47 ГБ




Вы не можете начинать темы
Вы не можете отвечать на сообщения
Вы не можете редактировать свои сообщения
Вы не можете удалять свои сообщения
Вы не можете добавлять вложения

Перейти:  
Для Мосгорсуда, Роскомнадзора и рекламодателей: mosgorsud-torrent[собачка]yandex.ru
 Вход
ppkBB3cker v.2 © 2008-2014 @ PPK
[ Time : 0.022s | 18 Queries | GZIP : Off ]

cron