img image001 image001 image001 image001 image001 image001 image001 image001 image001 image001 image001 image001 image001 image001 image001

Planets Sun Sun Sun
Статистика раздачи
Автор: Nickolas3434 | Размер: 69.62 ГБ | Добавлен: 23 май 2016
Раздают: 12    Качают: 14
Скачать торрент
Скачать торрент
Описание торрента

СообщениеДобавлено: 23 май 2016 


Информация о фильме
Название: Разрушители легенд
Оригинальное название: Mythbusters
Год выхода: 2003-2009
Жанр: Научно-популярный
Режиссер: Стив Кристьянсен, Лаурен Вильямс
В ролях: Джейми Хайнеман, Адам Сэвидж, Тори Беллечи, Кэри Байрон, Грант Имахара
О фильме:
Сборник разрушителей с 2003 по 2009 год, большинство с переводом от ТВ3 (Как мне кажется более удобоваримая озвучка, и многоголосая в отличие от дискавери, также эпизоды длиннее чем транслировавшиеся по дискавери - ~50 минут в отличие от ~42 дискавери). Нетранслировавшиеся на ТВ3 выпуски представлены в варианте от дискавери (HD-версии где возможно). После 131 эпизода - FullHD версии от дискавери.
General
Complete name : Z:StorageAbstractMBTV320031-TV3-SD-Exploding Toilet.mp4
Format : MPEG-4
Format profile : Base Media
Codec ID : isom (isom)
File size : 322 MiB
Duration : 49mn 23s
Overall bit rate mode : Variable
Overall bit rate : 911 Kbps
Encoded date : UTC 2014-01-29 11:44:57
Tagged date : UTC 2014-01-29 11:44:57
Video
ID : 1
Format : MPEG-4 Visual
Format profile : Advanced Simple@L5
Format settings, BVOP : Yes
Format settings, QPel : No
Format settings, GMC : No warppoints
Format settings, Matrix : Default (H.263)
Codec ID : 20
Duration : 49mn 23s
Bit rate mode : Variable
Bit rate : 845 Kbps
Maximum bit rate : 6 670 Kbps
Width : 624 pixels
Height : 352 pixels
Display aspect ratio : 16:9
Frame rate mode : Constant
Frame rate : 29.970 (30000/1001) fps
Color space : YUV
Chroma subsampling : 4:2:0
Bit depth : 8 bits
Scan type : Progressive
Compression mode : Lossy
Bits/(Pixel*Frame) : 0.128
Stream size : 298 MiB (93%)
Writing library : XviD 1.0.3 (UTC 2004-12-20)
Encoded date : UTC 2014-01-29 11:44:57
Tagged date : UTC 2014-01-29 11:45:19
Audio
ID : 2
Format : MPEG Audio
Format version : Version 1
Format profile : Layer 3
Codec ID : 6B
Duration : 49mn 22s
Bit rate mode : Constant
Bit rate : 64.0 Kbps
Maximum bit rate : 66.0 Kbps
Channel(s) : 1 channel
Sampling rate : 48.0 KHz
Compression mode : Lossy
Stream size : 22.6 MiB (7%)
Title : audio.mp3 - Imported with GPAC 0.5.1-DEV-rev4157
Writing library : LAME3.91
Encoding settings : -m m -V 4 -q 3 -lowpass 18 -b 64
Encoded date : UTC 2014-01-29 11:45:11
Tagged date : UTC 2014-01-29 11:45:19
General
Unique ID : 233980508252147103027532046926177679747 (0xB00701B8B3A7C995AF44B2825394B983)
Complete name : Z:StorageAbstractMBTV3200537-Discovery-SD-Escape Slide Parachute.mkv
Format : Matroska
Format version : Version 2
File size : 373 MiB
Duration : 47mn 8s
Overall bit rate mode : Variable
Overall bit rate : 1 106 Kbps
Encoded date : UTC 2009-10-12 19:51:04
Writing application : mkvmerge v2.9.8 ('C'est le bon') built on Aug 13 2009 12:49:06
Writing library : libebml v0.7.7 + libmatroska v0.8.1
Video
ID : 1
Format : AVC
Format/Info : Advanced Video Codec
Format profile : High@L4.1
Format settings, CABAC : Yes
Format settings, ReFrames : 8 frames
Codec ID : V_MPEG4/ISO/AVC
Duration : 47mn 8s
Nominal bit rate : 1 000 Kbps
Width : 544 pixels
Height : 496 pixels
Display aspect ratio : 3:2
Original display aspect rat : 1.097
Frame rate mode : Constant
Frame rate : 25.000 fps
Color space : YUV
Chroma subsampling : 4:2:0
Bit depth : 8 bits
Scan type : Progressive
Bits/(Pixel*Frame) : 0.148
Writing library : x264 core 75 r1259M dd026f2
Encoding settings : cabac=1 / ref=8 / deblock=1:-1:-1 / analyse=0x3:0x133 / me=hex / subme=7 / psy=1 / psy_rd=1.0:0.0 / mixed_ref=1 / me_range=16 / chroma_me=1 / trellis=2 / 8x8dct=1 / cqm=0 / deadzone=21,11 / chroma_qp_offset=-4 / threads=6 / nr=0 / decimate=1 / mbaff=0 / bframes=3 / b_pyramid=0 / b_adapt=2 / b_bias=0 / direct=3 / wpredb=0 / keyint=250 / keyint_min=25 / scenecut=40 / rc_lookahead=40 / rc=2pass / mbtree=1 / bitrate=1000 / ratetol=1.0 / qcomp=0.60 / qpmin=10 / qpmax=51 / qpstep=4 / cplxblur=20.0 / qblur=0.5 / ip_ratio=1.40 / aq=1:1.00 / pulldown=0 / nal_hrd=0
Language : Russian
Default : Yes
Forced : No
Audio
ID : 2
Format : MPEG Audio
Format version : Version 1
Format profile : Layer 3
Mode : Joint stereo
Mode extension : MS Stereo
Codec ID : A_MPEG/L3
Codec ID/Hint : MP3
Duration : 47mn 8s
Bit rate mode : Variable
Channel(s) : 2 channels
Sampling rate : 48.0 KHz
Compression mode : Lossy
Delay relative to video : 20ms
Language : Russian
Default : Yes
Forced : No
General
ID : 12 (0xC)
Complete name : Z:StorageAbstractMBTV32006SP10-Discovery-HD1080-Holiday Special.ts
Format : MPEG-TS
File size : 3.33 GiB
Duration : 45mn 52s
Overall bit rate mode : Variable
Overall bit rate : 10.4 Mbps
Video
ID : 325 (0x145)
Menu ID : 12105 (0x2F49)
Format : AVC
Format/Info : Advanced Video Codec
Format profile : Main@L4
Format settings, CABAC : Yes
Format settings, ReFrames : 4 frames
Codec ID : 27
Duration : 45mn 55s
Bit rate : 9 490 Kbps
Width : 1 920 pixels
Height : 1 080 pixels
Display aspect ratio : 16:9
Frame rate : 25.000 fps
Color space : YUV
Chroma subsampling : 4:2:0
Bit depth : 8 bits
Scan type : Interlaced
Scan type, store method : Separated fields
Scan order : Top Field First
Bits/(Pixel*Frame) : 0.183
Stream size : 3.04 GiB (91%)
Color range : Limited
Color primaries : BT.709
Transfer characteristics : BT.709
Matrix coefficients : BT.709
Audio
ID : 405 (0x195)
Menu ID : 12105 (0x2F49)
Format : AC-3
Format/Info : Audio Coding 3
Mode extension : CM (complete main)
Format settings, Endianness : Big
Codec ID : 6
Duration : 45mn 56s
Bit rate mode : Constant
Bit rate : 384 Kbps
Channel(s) : 6 channels
Channel positions : Front: L C R, Side: L R, LFE
Sampling rate : 48.0 KHz
Frame rate : 31.250 fps (1536 spf)
Compression mode : Lossy
Delay relative to video : 140ms
Stream size : 126 MiB (4%)
General
Complete name : Z:StorageAbstractMBTV3200666-TV3-SD-Concrete Glider.mp4
Format : MPEG-4
Format profile : Base Media
Codec ID : isom (isom)
File size : 379 MiB
Duration : 49mn 59s
Overall bit rate mode : Variable
Overall bit rate : 1 061 Kbps
Encoded date : UTC 2014-01-29 16:52:47
Tagged date : UTC 2014-01-29 16:52:47
Video
ID : 1
Format : MPEG-4 Visual
Format profile : Advanced Simple@L5
Format settings, BVOP : Yes
Format settings, QPel : No
Format settings, GMC : No warppoints
Format settings, Matrix : Default (H.263)
Codec ID : 20
Duration : 49mn 59s
Bit rate mode : Variable
Bit rate : 997 Kbps
Maximum bit rate : 4 717 Kbps
Width : 640 pixels
Height : 480 pixels
Display aspect ratio : 4:3
Frame rate mode : Constant
Frame rate : 25.000 fps
Color space : YUV
Chroma subsampling : 4:2:0
Bit depth : 8 bits
Scan type : Progressive
Compression mode : Lossy
Bits/(Pixel*Frame) : 0.130
Stream size : 356 MiB (94%)
Writing library : XviD 1.2.1 (UTC 2008-12-04)
Encoded date : UTC 2014-01-29 16:52:47
Tagged date : UTC 2014-01-29 16:53:11
Audio
ID : 2
Format : MPEG Audio
Format version : Version 1
Format profile : Layer 3
Codec ID : 6B
Duration : 49mn 59s
Bit rate mode : Variable
Bit rate : 64.0 Kbps
Maximum bit rate : 72.6 Kbps
Channel(s) : 1 channel
Sampling rate : 48.0 KHz
Compression mode : Lossy
Stream size : 21.8 MiB (6%)
Title : audio.mp3 - Imported with GPAC 0.5.1-DEV-rev4157
Writing library : LAME3.98r
Encoding settings : -m m -V 4 -q 2 -lowpass 16.5 --abr 64
Encoded date : UTC 2014-01-29 16:53:01
Tagged date : UTC 2014-01-29 16:53:11
General
Unique ID : 23412634229511379991031621292611503227 (0x119D1BFD4F7734D8C2C4A645E36E847B)
Complete name : Z:StorageAbstractMBTV3200771-Discovery-HD-Pirate Special.mkv
Format : Matroska
Format version : Version 2
File size : 2.26 GiB
Duration : 1h 30mn
Overall bit rate : 3 594 Kbps
Writing application : Lavf54.27.100
Writing library : Lavf54.27.100 / Lavf54.27.100
Video
ID : 1
Format : AVC
Format/Info : Advanced Video Codec
Format profile : High@L3.1
Format settings, CABAC : Yes
Format settings, ReFrames : 3 frames
Codec ID : V_MPEG4/ISO/AVC
Duration : 1h 30mn
Width : 1 280 pixels
Height : 720 pixels
Display aspect ratio : 16:9
Frame rate mode : Constant
Frame rate : 25.000 fps
Color space : YUV
Chroma subsampling : 4:2:0
Bit depth : 8 bits
Scan type : Progressive
Writing library : x264 core 85 r1442kGIT 781d300
Encoding settings : cabac=1 / ref=3 / deblock=1:-2:-1 / analyse=0x3:0x133 / me=umh / subme=7 / psy=1 / psy_rd=1.00:0.15 / mixed_ref=1 / me_range=16 / chroma_me=1 / trellis=2 / 8x8dct=1 / cqm=0 / deadzone=21,11 / fast_pskip=1 / chroma_qp_offset=-3 / threads=6 / sliced_threads=0 / nr=0 / decimate=1 / mbaff=0 / interlaced=0 / constrained_intra=0 / bframes=4 / b_pyramid=0 / b_adapt=2 / b_bias=0 / direct=3 / wpredb=1 / wpredp=2 / keyint=250 / keyint_min=25 / scenecut=40 / intra_refresh=0 / rc_lookahead=50 / rc=crf / mbtree=1 / crf=21.0 / qcomp=0.60 / qpmin=10 / qpmax=51 / qpstep=4 / ip_ratio=1.40 / aq=1:1.00 / pulldown=0
Default : Yes
Forced : No
HANDLER_NAME : 5-71-Discovery-HD-Pirate Special.mkv-audio-0.264 - Imported with GPAC 0.5.1-DEV-rev4127
Audio
ID : 2
Format : AAC
Format/Info : Advanced Audio Codec
Format profile : LC
Codec ID : A_AAC
Duration : 1h 30mn
Channel(s) : 2 channels
Channel positions : Front: L R
Sampling rate : 48.0 KHz
Frame rate : 46.875 fps (1024 spf)
Compression mode : Lossy
Delay relative to video : -40ms
Default : Yes
Forced : No
HANDLER_NAME : 5-71-Discovery-HD-Pirate Special.mkv-video-0.AAC - Imported with GPAC 0.5.1-DEV-rev4127
General
ID : 1 (0x1)
Complete name : Z:StorageAbstractMBTV32009132-Discovery-HD1080g-Dumpster Diving.ts
Format : MPEG-TS
File size : 2.49 GiB
Duration : 44mn 16s
Overall bit rate mode : Variable
Overall bit rate : 8 066 Kbps
Video
ID : 325 (0x145)
Menu ID : 1 (0x1)
Format : AVC
Format/Info : Advanced Video Codec
Format profile : Main@L4
Format settings, CABAC : Yes
Format settings, ReFrames : 4 frames
Codec ID : 27
Duration : 44mn 15s
Bit rate : 7 280 Kbps
Width : 1 920 pixels
Height : 1 080 pixels
Display aspect ratio : 16:9
Frame rate : 25.000 fps
Standard : Component
Color space : YUV
Chroma subsampling : 4:2:0
Bit depth : 8 bits
Scan type : Interlaced
Scan type, store method : Separated fields
Scan order : Top Field First
Bits/(Pixel*Frame) : 0.140
Stream size : 2.25 GiB (90%)
Color range : Limited
Color primaries : BT.709
Transfer characteristics : BT.709
Matrix coefficients : BT.709
Audio
ID : 405 (0x195)
Menu ID : 1 (0x1)
Format : AC-3
Format/Info : Audio Coding 3
Mode extension : CM (complete main)
Format settings, Endianness : Big
Codec ID : 6
Duration : 44mn 15s
Bit rate mode : Constant
Bit rate : 384 Kbps
Channel(s) : 6 channels
Channel positions : Front: L C R, Side: L R, LFE
Sampling rate : 48.0 KHz
Frame rate : 31.250 fps (1536 spf)
Compression mode : Lossy
Stream size : 122 MiB (5%)
Language : Russian

Официальный сайт
Страна: США, Австралия
Студия: Discovery Communications, Beyond Distribution
Продолжительность: ~42-50 минут, специальные выпуски до 1.5 часов
Перевод: Профессиональный многоголосый (ТВ3), Профессиональный одноголосый (Discovery)
Файл
Кодек: Xvid, h.264
Качество: SATrip, HDTV, HDTVRip
Видео: Различные, примеры в mediainfo
Звук: Различные, примеры в mediainfo
Субтитры: Нет



   Похожие торренты   Торрент   Размер 
В этой теме нет новых непрочитанных сообщений. Разрушители легенд / MythBusters [1-146] + специальные выпуски (2003-2010) SATRip

36 | 119

57.44 ГБ

В этой теме нет новых непрочитанных сообщений. Discovery: Разрушители легенд / MythBusters [S01-08] (2003-2011) SATRip-AVC

252 | 100

74.65 ГБ

В этой теме нет новых непрочитанных сообщений. Разрушители легенд / Mythbusters [16x00-03] (2016) HDTV 720p | Ideafilm

74 | 30

5.04 ГБ

В этой теме нет новых непрочитанных сообщений. Разрушители легенд / Mythbusters [16x01-02] (2016) HDTV 720p | Ideafilm

70 | 6

2.63 ГБ

В этой теме нет новых непрочитанных сообщений. Разрушители легенд / Mythbusters [16x00-06 из 11] (2016) HDTV 720p | Ideafilm

23 | 14

8.92 ГБ

В этой теме нет новых непрочитанных сообщений. Разрушители легенд / Mythbusters [16x00-04] (2016) HDTV 720p | Ideafilm

166 | 42

6.23 ГБ

В этой теме нет новых непрочитанных сообщений. Разрушители легенд / Mythbusters [16x00-05] (2016) HDTV 720p | Ideafilm

89 | 32

7.59 ГБ




Вы не можете начинать темы
Вы не можете отвечать на сообщения
Вы не можете редактировать свои сообщения
Вы не можете удалять свои сообщения
Вы не можете добавлять вложения

Перейти:  
Для Мосгорсуда, Роскомнадзора и рекламодателей: mosgorsud-torrent[собачка]yandex.ru
 Вход
ppkBB3cker v.2 © 2008-2014 @ PPK
[ Time : 0.055s | 14 Queries | GZIP : On ]

Торрент трекер RUTOR.IN, Не можете зайти на rutor.org? Какой новый адрес рутор? Какое зеркало рутор? Не работает rutor.org и зеркала? Тогда наш торрент специально для вас. Rutor.in неофициальное зеркало rutor. В случае если у Вас заблокирован rutor или вдруг Вы не можете на него зайти, то Вы без труда сможете скачать бесплатно и без рекламы последние новинки кино, игр, сериалов и прочего у нас, на Rutor.in. Не нужно использовать прокси, чтобы зайти на рутор, достаточно воспользоваться нашим ресурсом. Все новые фильмы, игры, сериалы, книги и музыка за 2013 и 2014 годы через торрент бесплатно. Скачивайте фильмы в хорошем качестве, игры для пк, xbox, playstation без регистрации. У нас вы найдете новые Зарубежные сериалы и Русские сериалы 2013, 2014, 2015 годов. Оставайтесь с нами, качайте любимые фильмы, игры, сериалы, книги и музыку.