img image001 image001 image001 image001 image001 image001 image001 image001 image001 image001 image001 image001 image001 image001 image001

Planets Sun Sun Sun
Статистика раздачи
Автор: Nickolas3434 | Размер: 802.66 МБ | Добавлен: 26 май 2016
Раздают: 38    Качают: 0
Скачать торрент
Скачать торрент
Описание торрента

СообщениеДобавлено: 26 май 2016 

Информация о фильме
Название: BBC: Помпеи: новые секреты
Оригинальное название: Pompeii: New Secrets Revealed with Mary Beard
Год выхода: 2016
Жанр: Документальный
Режиссер: Ян А. Хант
О фильме:
Пришло время проекта "Великие Помпеи", а значит, историк Мэри Бирд отправляется на раскопки древнего города, застывшего во времени из-за извержения вулкана в 79 году н.э. За всё время раскопок было немало рассказано об этом городе, но, тем не менее, секретов у него ещё предостаточно, целая треть города ещё покоится в застывшей лаве, а также мы практически ничего не знаем о том, чьи тела были найдены. Используя последние достижения техники, исследователи начали огромный проект по раскопкам 30% города, которые лежат погребёнными под слоем пепла и лавы, в надежде открыть новые факты о трагически погибших людях. Впервые будут извлечены застывшие тела погибших, чтобы провести идентификацию, включая забор образцов ДНК!
Страна: США
Студия: BBC
Продолжительность: 00:59:00
Перевод: Дублированный
Файл
Кодек: XviD
Качество: HDTVRip
Видео: 720x400 (16:9), 25 fps, XviD, 1700 kbps avg, 0.236 bit/pixel
Аудио: 48 kHz, AC3 Dolby Digital, 2 ch, ~192 kbps
Релиз от
Автор Рипа: RockeT
General
Complete name : C:UsersDesktopФильмыBBC_Pompeii_New Secrets Revealed.HDTVRip.by RockeT [Virtus & KazTorrentS].avi
Format : AVI
Format/Info : Audio Video Interleave
File size : 803 MiB
Duration : 59mn 0s
Overall bit rate : 1 902 Kbps
Writing application : VirtualDubMod 1.5.10.3 | www.virtualdub-fr.org || (build 2550/release)
Writing library : VirtualDubMod build 2550/release
Video
ID : 0
Format : MPEG-4 Visual
Format profile : Advanced Simple@L5
Format settings, BVOP : 1
Format settings, QPel : No
Format settings, GMC : No warppoints
Format settings, Matrix : Default (MPEG)
Codec ID : XVID
Codec ID/Hint : XviD
Duration : 59mn 0s
Bit rate : 1 700 Kbps
Width : 720 pixels
Height : 400 pixels
Display aspect ratio : 16:9
Frame rate : 25.000 fps
Color space : YUV
Chroma subsampling : 4:2:0
Bit depth : 8 bits
Scan type : Progressive
Compression mode : Lossy
Bits/(Pixel*Frame) : 0.236
Stream size : 718 MiB (89%)
Writing library : XviD 1.2.1 (UTC 2008-12-04)
Audio
ID : 1
Format : AC-3
Format/Info : Audio Coding 3
Mode extension : CM (complete main)
Format settings, Endianness : Big
Codec ID : 2000
Duration : 59mn 0s
Bit rate mode : Constant
Bit rate : 192 Kbps
Channel(s) : 2 channels
Channel positions : Front: L R
Sampling rate : 48.0 KHz
Compression mode : Lossy
Stream size : 81.0 MiB (10%)
Alignment : Split accross interleaves
Interleave, duration : 40 ms (1.00 video frame)
Interleave, preload duration : 500 ms




   Похожие торренты   Торрент   Размер 
В этой теме нет новых непрочитанных сообщений. BBC: Мир природы. Секреты подземелий майя / Natural World. Secrets of the Maya Underworld (2005) HDTVRip от Kaztorrents | P1

76 | 3

696.68 МБ

В этой теме нет новых непрочитанных сообщений. NG: Стаффордширское сокровище. Секреты утраченного золота / Treasure Hoard. Secrets of the Lost Gold (2011) HDTVRip от Kaztorrents | P1

17 | 3

644.08 МБ

В этой теме нет новых непрочитанных сообщений. Помпеи. Жизнь, застывшая во времени / Pompeii. Life before Death [01-02 из 02] (2016) SATRip от Files-х

43 | 7

1.32 ГБ

В этой теме нет новых непрочитанных сообщений. Тайны музеев / Museum Secrets Revealed [03х01-05 из 08] (2013) HDTVRip от GeneralFilm | P2

70 | 9

2.52 ГБ

В этой теме нет новых непрочитанных сообщений. Тайны музеев / Museum Secrets Revealed [S01] (2010-2011) HDTVRip от HitWay | P2

120 | 26

3.18 ГБ

В этой теме нет новых непрочитанных сообщений. Тайны музеев / Museum Secrets Revealed [02x01-02 из 08] (2012) HDTVRip от HitWay | P2

46 | 11

997.93 МБ

В этой теме нет новых непрочитанных сообщений. Тайны музеев / Museum Secrets Revealed [03х01-05 из 08] (2013) HDTVRip от GeneralFilm | P2

48 | 19

3.53 ГБ




Вы не можете начинать темы
Вы не можете отвечать на сообщения
Вы не можете редактировать свои сообщения
Вы не можете удалять свои сообщения
Вы не можете добавлять вложения

Перейти:  
Для Мосгорсуда, Роскомнадзора и рекламодателей: mosgorsud-torrent[собачка]yandex.ru
 Вход
ppkBB3cker v.2 © 2008-2014 @ PPK
[ Time : 0.036s | 15 Queries | GZIP : Off ]

Торрент трекер RUTOR.IN, Не можете зайти на rutor.org? Какой новый адрес рутор? Какое зеркало рутор? Не работает rutor.org и зеркала? Тогда наш торрент специально для вас. Rutor.in неофициальное зеркало rutor. В случае если у Вас заблокирован rutor или вдруг Вы не можете на него зайти, то Вы без труда сможете скачать бесплатно и без рекламы последние новинки кино, игр, сериалов и прочего у нас, на Rutor.in. Не нужно использовать прокси, чтобы зайти на рутор, достаточно воспользоваться нашим ресурсом. Все новые фильмы, игры, сериалы, книги и музыка за 2013 и 2014 годы через торрент бесплатно. Скачивайте фильмы в хорошем качестве, игры для пк, xbox, playstation без регистрации. У нас вы найдете новые Зарубежные сериалы и Русские сериалы 2013, 2014, 2015 годов. Оставайтесь с нами, качайте любимые фильмы, игры, сериалы, книги и музыку.