img image001 image001 image001 image001 image001 image001 image001 image001 image001 image001 image001 image001 image001 image001 image001

Planets Sun Sun Sun
Статистика раздачи
Автор: Nickolas3434 | Размер: 739 МБ | Добавлен: 31 май 2016
Раздают: 167    Качают: 12
Скачать торрент
Скачать торрент
Описание торрента

СообщениеДобавлено: 31 май 2016 

Информация о фильме
Название: BBC: Рассвет во Вселенной. Момент сотворения мира
Оригинальное название: Cosmic Dawn: The Real Moment of Creation
Год выхода: 2015
Жанр: Документальный
Режиссер: Тоби МакДональд
О фильме:
Забудьте о Большом взрыве. Настоящий момент создания - это Космический Рассвет, появление первого света. Большой взрыв получил все лавры создания Вселенной, однако пространство, которое появилось, было темным и скучным. Не было ни звезд, ни галактик, просто огромное черное облако газа - космические темные века. Но через сто миллионов лет этого Ничто появились первые звезды, которые осветили Вселенную...
Страна: Великобритания
Студия: BBC
Продолжительность: 00:51:37
Перевод: Профессиональный (одноголосый, закадровый)
Файл
Кодек: XviD
Качество: HDTVRip
Видео: 720x400 (16:9), 25 fps, XviD, 1800 kbps avg, 0.250 bit/pixel
Аудио: 48 kHz, AC3 Dolby Digital, 2 ch, ~192 kbps
Релиз от
Автор Рипа: RockeT
General
Complete name : C:UsersDesktopФильмыBBC_Horizon_Cosmic Dawn_The Real Moment of Creation.HDTVRip.by RockeT [Virtus & KazTorrentS].avi
Format : AVI
Format/Info : Audio Video Interleave
File size : 739 MiB
Duration : 51mn 37s
Overall bit rate : 2 002 Kbps
Writing application : VirtualDubMod 1.5.10.3 | www.virtualdub-fr.org || (build 2550/release)
Writing library : VirtualDubMod build 2550/release
Video
ID : 0
Format : MPEG-4 Visual
Format profile : Advanced Simple@L5
Format settings, BVOP : 1
Format settings, QPel : No
Format settings, GMC : No warppoints
Format settings, Matrix : Default (MPEG)
Codec ID : XVID
Codec ID/Hint : XviD
Duration : 51mn 37s
Bit rate : 1 800 Kbps
Width : 720 pixels
Height : 400 pixels
Display aspect ratio : 16:9
Frame rate : 25.000 fps
Color space : YUV
Chroma subsampling : 4:2:0
Bit depth : 8 bits
Scan type : Progressive
Compression mode : Lossy
Bits/(Pixel*Frame) : 0.250
Stream size : 665 MiB (90%)
Writing library : XviD 1.2.1 (UTC 2008-12-04)
Audio
ID : 1
Format : AC-3
Format/Info : Audio Coding 3
Mode extension : CM (complete main)
Format settings, Endianness : Big
Codec ID : 2000
Duration : 51mn 37s
Bit rate mode : Constant
Bit rate : 192 Kbps
Channel(s) : 2 channels
Channel positions : Front: L R
Sampling rate : 48.0 KHz
Compression mode : Lossy
Stream size : 70.9 MiB (10%)
Alignment : Split accross interleaves
Interleave, duration : 40 ms (1.00 video frame)
Interleave, preload duration : 500 ms




   Похожие торренты   Торрент   Размер 
В этой теме нет новых непрочитанных сообщений. Биомиметика - факты божественного сотворения жизни / Fact of creation documentaries (2005) DVDRip

3 | 5

698.3 МБ

В этой теме нет новых непрочитанных сообщений. Рассвет Человечества / Dawn of Humanity (2015) HDTVRip-AVC | P1

183 | 12

714.45 МБ

В этой теме нет новых непрочитанных сообщений. Империя: Рассвет современного мира / Empires: Dawn of the Modern World (2004) PC

255 | 16

681.26 МБ

В этой теме нет новых непрочитанных сообщений. Рассвет человечества / Dawn of Humanity (2015) HDTVRip от torrentfilm | P1

106 | 11

697.34 МБ

В этой теме нет новых непрочитанных сообщений. Рассвет Человечества / Dawn of Humanity (2015) HDTVRip 720p | P1

329 | 9

1.47 ГБ

В этой теме нет новых непрочитанных сообщений. Этот неловкий момент / Un moment d'égarement (2015) BDRemux | НТВ+

114 | 12

21.92 ГБ

В этой теме нет новых непрочитанных сообщений. Этот неловкий момент / Un moment d'égarement (2015) HDRip | HTB+

3596 | 118

1.37 ГБ




Вы не можете начинать темы
Вы не можете отвечать на сообщения
Вы не можете редактировать свои сообщения
Вы не можете удалять свои сообщения
Вы не можете добавлять вложения

Перейти:  
Для Мосгорсуда, Роскомнадзора и рекламодателей: mosgorsud-torrent[собачка]yandex.ru
 Вход
ppkBB3cker v.2 © 2008-2014 @ PPK
[ Time : 0.029s | 18 Queries | GZIP : Off ]

Торрент трекер RUTOR.IN, Не можете зайти на rutor.org? Какой новый адрес рутор? Какое зеркало рутор? Не работает rutor.org и зеркала? Тогда наш торрент специально для вас. Rutor.in неофициальное зеркало rutor. В случае если у Вас заблокирован rutor или вдруг Вы не можете на него зайти, то Вы без труда сможете скачать бесплатно и без рекламы последние новинки кино, игр, сериалов и прочего у нас, на Rutor.in. Не нужно использовать прокси, чтобы зайти на рутор, достаточно воспользоваться нашим ресурсом. Все новые фильмы, игры, сериалы, книги и музыка за 2013 и 2014 годы через торрент бесплатно. Скачивайте фильмы в хорошем качестве, игры для пк, xbox, playstation без регистрации. У нас вы найдете новые Зарубежные сериалы и Русские сериалы 2013, 2014, 2015 годов. Оставайтесь с нами, качайте любимые фильмы, игры, сериалы, книги и музыку.
cron