img image001 image001 image001 image001 image001 image001 image001 image001 image001 image001 image001 image001 image001 image001 image001

Planets Sun Sun Sun
Статистика раздачи
Автор: Nickolas3434 | Размер: 909.58 МБ | Добавлен: 06 июн 2016
Раздают: 5    Качают: 0
Скачать торрент
Скачать торрент
Описание торрента

СообщениеДобавлено: 06 июн 2016 


Информация о фильме
Название: Эффект рения (Effect of Rhenium)
Год выхода: 2014
Жанр: Документальный
Режиссер: Дмитрий Семибратов
О фильме:
О невероятном открытии месторождения самого редкого в мире металла - рения в кратере вулкана на Курильском острове Итуруп. Рений - редчайший элемент на нашей планете. Его количество в пять раз меньше, чем золота, в сто раз меньше, чем серебра и в тысячу раз меньше в сравнении с вольфрамом. Существование рения было предсказано еще в 1871 году великим русским ученым, автором Периодической Таблицы химических элементов Дмитрием Менделеевым. Хотя найти загадочный элемент оказалось нелегкой задачей.
Доп. информация:
Сценарий: Марина Собе-Панек
Операторы: Дмитрий Миненков, Владимир Усольцев
Продюсер: Владимир Бажин
Запись потока *.ts с наземного цифрового телеканала "Беларусь 3", ремукс в *.mkv программой VideoReDo.
Страна: Российская Федерация
Студия: Центр национального фильма (ЦНФ)
Продолжительность: 00:52:02
Перевод: не нужен
Файл
Кодек: AVC (H264)
Качество: DVB
Видео: AVC (H264), 720x576 (4:3), 25 fps, 2 139 Kbps
Звук: MP2, 256 kbps, 2 channels, 48 kHz
Семпл
Код:
General
Unique ID                      : 224989799324572646549336110925592533609 (0xA943758C2BBAC624F48D0D7A02461A69)
Complete name                  : D:Новая  земля 201 Документальный фильмыПутешествиеЭффект рения (2014)Эффект рения (2014).mkv
Format                         : Matroska
Format version                 : Version 2
File size                      : 910 MiB
Duration                       : 52mn 2s
Overall bit rate               : 2 444 Kbps
Writing application            : Lavf52.64.2
Writing library                : Lavf52.64.2
Video
ID                             : 1
Format                         : AVC
Format/Info                    : Advanced Video Codec
Format profile                 : Main@L3.0
Format settings, CABAC         : Yes
Format settings, ReFrames      : 4 frames
Format settings, GOP           : M=4, N=24
Codec ID                       : V_MPEG4/ISO/AVC
Duration                       : 52mn 2s
Bit rate                       : 2 139 Kbps
Width                          : 720 pixels
Height                         : 576 pixels
Display aspect ratio           : 4:3
Original display aspect ratio  : 4:3
Frame rate mode                : Constant
Frame rate                     : 25.000 fps
Standard                       : PAL
Color space                    : YUV
Chroma subsampling             : 4:2:0
Bit depth                      : 8 bits
Scan type                      : MBAFF
Scan order                     : Top Field First
Bits/(Pixel*Frame)             : 0.206
Stream size                    : 796 MiB (88%)
Default                        : Yes
Forced                         : No
Color primaries                : BT.601 PAL
Transfer characteristics       : BT.470 System B, BT.470 System G
Matrix coefficients            : BT.601
Color range                    : Limited
Audio
ID                             : 2
Format                         : MPEG Audio
Format version                 : Version 1
Format profile                 : Layer 2
Codec ID                       : A_MPEG/L2
Codec ID/Hint                  : MP2
Duration                       : 52mn 2s
Bit rate mode                  : Constant
Bit rate                       : 256 Kbps
Channel(s)                     : 2 channels
Sampling rate                  : 48.0 KHz
Compression mode               : Lossy
Stream size                    : 95.3 MiB (10%)
Language                       : English
Default                        : Yes
Forced                         : No
 




   Похожие торренты   Торрент   Размер 
В этой теме нет новых непрочитанных сообщений. Масс Эффект / Mass Effect [S01] (2014) WEB-DL 720p

480 | 74

3.02 ГБ

В этой теме нет новых непрочитанных сообщений. Эффект Скопии / The Scopia Effect (2014) WEB-DLRip | L

1689 | 79

1.38 ГБ

В этой теме нет новых непрочитанных сообщений. Эффект Скопии / The Scopia Effect (2014) WEB-DL 720p | L

392 | 25

3.63 ГБ

В этой теме нет новых непрочитанных сообщений. Эффект Скопии / The Scopia Effect (2014) WEB-DL 1080p | L

175 | 23

3.77 ГБ

В этой теме нет новых непрочитанных сообщений. Масс Эффект / Mass Effect [01x01-06 из 07] (2014) WEB-DL 720p

1132 | 157

2.65 ГБ

В этой теме нет новых непрочитанных сообщений. Масс Эффект / Mass Effect [01x01-05 из 6] (2014) WEB-DL 720p

448 | 47

2.24 ГБ

В этой теме нет новых непрочитанных сообщений. Discovery. Эффект Карбонаро / The Carbonaro effect [01-13 из 13] (2014) HDTVRip от GeneralFilm | P2

142 | 64

3.26 ГБ




Вы не можете начинать темы
Вы не можете отвечать на сообщения
Вы не можете редактировать свои сообщения
Вы не можете удалять свои сообщения
Вы не можете добавлять вложения

Перейти:  
Для Мосгорсуда, Роскомнадзора и рекламодателей: mosgorsud-torrent[собачка]yandex.ru
 Вход
ppkBB3cker v.2 © 2008-2014 @ PPK
[ Time : 0.033s | 14 Queries | GZIP : Off ]

Торрент трекер RUTOR.IN, Не можете зайти на rutor.org? Какой новый адрес рутор? Какое зеркало рутор? Не работает rutor.org и зеркала? Тогда наш торрент специально для вас. Rutor.in неофициальное зеркало rutor. В случае если у Вас заблокирован rutor или вдруг Вы не можете на него зайти, то Вы без труда сможете скачать бесплатно и без рекламы последние новинки кино, игр, сериалов и прочего у нас, на Rutor.in. Не нужно использовать прокси, чтобы зайти на рутор, достаточно воспользоваться нашим ресурсом. Все новые фильмы, игры, сериалы, книги и музыка за 2013 и 2014 годы через торрент бесплатно. Скачивайте фильмы в хорошем качестве, игры для пк, xbox, playstation без регистрации. У нас вы найдете новые Зарубежные сериалы и Русские сериалы 2013, 2014, 2015 годов. Оставайтесь с нами, качайте любимые фильмы, игры, сериалы, книги и музыку.