img image001 image001 image001 image001 image001 image001 image001 image001 image001 image001 image001 image001 image001 image001 image001

Planets Sun Sun Sun
Статистика раздачи
Автор: Nickolas3434 | Размер: 458.1 МБ | Добавлен: 06 июн 2016
Раздают: 0    Качают: 1
Скачать торрент
Скачать торрент
Описание торрента

СообщениеДобавлено: 06 июн 2016 


Информация о фильме
Название: Фритьоф Нансен. Нет жизни без борьбы
Год выхода: 2011
Жанр: Документальный
Режиссер: Дарья Новоселова
О фильме:
Документальная картина посвящена человеку, сделавшему очень многое для улучшения и стабилизации непростых отношений между СССР и Европой в начале XX века. Нансен был гуманистом, который верил, что люди достойны большего. Он оказывал посильную помощь беженцам, голодающим, нищим и бездомным. Очень многое для Нансена означала Россия (а затем и СССР), он восхищался ее народом и культурой. Кроме того, этот удивительный человек, бывший великолепным дипломатом, долгое время изучал Арктику, ведь верил в науку и ее достижения. За что боролся Нансен, почему он считал важным никогда не сдаваться – смотрите в документальном фильме «Фритьоф Нансен. Нет жизни без борьбы».
Запись потока *.ts с наземного цифрового телеканала "Беларусь 3", ремукс в *.mkv программой VideoReDo.
В конце фильма присутствуют 2 анонса, видны на скринах.
Страна: Российская Федерация
Студия: АТК-студио
Продолжительность: 00:25:56
Перевод: Не требуется
Файл
Кодек: AVC (H264)
Качество: DVB
Видео: AVC (H264), 720x576 (4:3), 25 fps, 2 164 Kbps
Звук: MP2, 256 kbps, 2 channels, 48 kHz
Семпл
Код:
General
Unique ID                      : 206307512737458202933235418216756676756 (0x9B3561B4080E3C5720332B599B240894)
Complete name                  : D:Новая  земля 2\001 Документальный фильмыЛичностиФритьоф Нансен. Нет жизни без борьбы (2011)Фритьоф Нансен. Нет жизни без борьбы (2011).mkv
Format                         : Matroska
Format version                 : Version 2
File size                      : 458 MiB
Duration                       : 25mn 56s
Overall bit rate               : 2 469 Kbps
Writing application            : Lavf52.64.2
Writing library                : Lavf52.64.2
Video
ID                             : 1
Format                         : AVC
Format/Info                    : Advanced Video Codec
Format profile                 : Main@L3.0
Format settings, CABAC         : Yes
Format settings, ReFrames      : 4 frames
Format settings, GOP           : M=4, N=24
Codec ID                       : V_MPEG4/ISO/AVC
Duration                       : 25mn 56s
Bit rate                       : 2 164 Kbps
Width                          : 720 pixels
Height                         : 576 pixels
Display aspect ratio           : 4:3
Original display aspect ratio  : 4:3
Frame rate mode                : Constant
Frame rate                     : 25.000 fps
Standard                       : PAL
Color space                    : YUV
Chroma subsampling             : 4:2:0
Bit depth                      : 8 bits
Scan type                      : MBAFF
Scan order                     : Top Field First
Bits/(Pixel*Frame)             : 0.209
Stream size                    : 401 MiB (88%)
Default                        : Yes
Forced                         : No
Color primaries                : BT.601 PAL
Transfer characteristics       : BT.470 System B, BT.470 System G
Matrix coefficients            : BT.601
Color range                    : Limited
Audio
ID                             : 2
Format                         : MPEG Audio
Format version                 : Version 1
Format profile                 : Layer 2
Codec ID                       : A_MPEG/L2
Codec ID/Hint                  : MP2
Duration                       : 25mn 56s
Bit rate mode                  : Constant
Bit rate                       : 256 Kbps
Channel(s)                     : 2 channels
Sampling rate                  : 48.0 KHz
Compression mode               : Lossy
Stream size                    : 47.5 MiB (10%)
Language                       : det
Default                        : Yes
Forced                         : No
 




   Похожие торренты   Торрент   Размер 
В этой теме нет новых непрочитанных сообщений. Линия жизни (2015) DVB от AND03AND

14 | 0

478.9 МБ

В этой теме нет новых непрочитанных сообщений. Река жизни (2009) DVB от AND03AND

8 | 15

969.66 МБ

В этой теме нет новых непрочитанных сообщений. Опера - Тропою жизни (198х) DVB от AND03AND

0 | 5

1.93 ГБ

В этой теме нет новых непрочитанных сообщений. Из жизни минских губернаторов (2010) DVB от AND03AND

11 | 4

626.87 МБ

В этой теме нет новых непрочитанных сообщений. Василий Корж. Уроки жизни (2009) SATRip от AND03AND

15 | 2

369.68 МБ

В этой теме нет новых непрочитанных сообщений. Пять дней из жизни генерального конструктора (Герои Беларуси. Генеральный конструктор МАЗ - Михаил Высоцкий) (2006) DVB от AND03AND

27 | 6

676.57 МБ

В этой теме нет новых непрочитанных сообщений. Родосвет - Кровные узы борьбы (2014) МР3

24 | 0

47.03 МБ




Вы не можете начинать темы
Вы не можете отвечать на сообщения
Вы не можете редактировать свои сообщения
Вы не можете удалять свои сообщения
Вы не можете добавлять вложения

Перейти:  
Для Мосгорсуда, Роскомнадзора и рекламодателей: mosgorsud-torrent[собачка]yandex.ru
 Вход
ppkBB3cker v.2 © 2008-2014 @ PPK
[ Time : 0.041s | 15 Queries | GZIP : Off ]

Торрент трекер RUTOR.IN, Не можете зайти на rutor.org? Какой новый адрес рутор? Какое зеркало рутор? Не работает rutor.org и зеркала? Тогда наш торрент специально для вас. Rutor.in неофициальное зеркало rutor. В случае если у Вас заблокирован rutor или вдруг Вы не можете на него зайти, то Вы без труда сможете скачать бесплатно и без рекламы последние новинки кино, игр, сериалов и прочего у нас, на Rutor.in. Не нужно использовать прокси, чтобы зайти на рутор, достаточно воспользоваться нашим ресурсом. Все новые фильмы, игры, сериалы, книги и музыка за 2013 и 2014 годы через торрент бесплатно. Скачивайте фильмы в хорошем качестве, игры для пк, xbox, playstation без регистрации. У нас вы найдете новые Зарубежные сериалы и Русские сериалы 2013, 2014, 2015 годов. Оставайтесь с нами, качайте любимые фильмы, игры, сериалы, книги и музыку.
cron