img image001 image001 image001 image001 image001 image001 image001 image001 image001 image001 image001 image001 image001 image001 image001

Planets Sun Sun Sun
Статистика раздачи
Автор: Nickolas3434 | Размер: 629.67 МБ | Добавлен: 08 июн 2016
Раздают: 71    Качают: 1
Скачать торрент
Скачать торрент
Описание торрента

СообщениеДобавлено: 08 июн 2016 

Информация о фильме
Название: Удивительные насекомые
Оригинальное название: Incredible Insects
Год выхода: 2015
Жанр: Документальный
Режиссер: Джессика Коннелл
О фильме:
Нельзя представить мир без насекомых. Они являются важным звеном пищевой цепочки без которого не существовала бы жизнь на Земле. На нашей планете скрывается удивительный мир насекомых, количество которых превышает население Земли в 200 000 000 раз. Это самая многочисленная группа животных в мире. Они правят небом, подводным миром и лесной подстилкой. У насекомых есть великолепные адаптации: пугающие ротовые органы, многочисленное потомство и отличная маскировка. Среди них есть не только сильные гигантские хищники, которые могут охотится даже на летучих мышей но и умелые охотники на более мелкую добычу, а также внимательные родители. На протяжении миллионов лет эволюции беспозвоночные не только выживали, но и процветали, демонстрируя невероятную адаптацию. В этом фильме мы расскажем вам о невидимом мире НЕВЕРОЯТНЫХ НАСЕКОМЫХ.
Страна: США
Студия: National Geographic
Продолжительность: 00:43:59
Перевод: Профессиональный (одноголосый, закадровый)
Файл
Кодек: XviD
Качество: HDTVRip
Видео: 720x400 (16:9), 25 fps, XviD, 1800 kbps avg, 0.250 bit/pixel
Аудио: 48 kHz, AC3 Dolby Digital, 2 ch, ~192 kbps
Релиз от
Автор Рипа: RockeT
General
Complete name : C:UsersDesktopФильмыIncredible Insects.HDTVRip.by RockeT [Virtus & KazTorrentS].avi
Format : AVI
Format/Info : Audio Video Interleave
File size : 630 MiB
Duration : 43mn 59s
Overall bit rate : 2 001 Kbps
Writing application : VirtualDubMod 1.5.10.3 | www.virtualdub-fr.org || (build 2550/release)
Writing library : VirtualDubMod build 2550/release
Video
ID : 0
Format : MPEG-4 Visual
Format profile : Advanced Simple@L5
Format settings, BVOP : 1
Format settings, QPel : No
Format settings, GMC : No warppoints
Format settings, Matrix : Default (MPEG)
Codec ID : XVID
Codec ID/Hint : XviD
Duration : 43mn 59s
Bit rate : 1 800 Kbps
Width : 720 pixels
Height : 400 pixels
Display aspect ratio : 16:9
Frame rate : 25.000 fps
Color space : YUV
Chroma subsampling : 4:2:0
Bit depth : 8 bits
Scan type : Progressive
Compression mode : Lossy
Bits/(Pixel*Frame) : 0.250
Stream size : 566 MiB (90%)
Writing library : XviD 1.2.1 (UTC 2008-12-04)
Audio
ID : 1
Format : AC-3
Format/Info : Audio Coding 3
Mode extension : CM (complete main)
Format settings, Endianness : Big
Codec ID : 2000
Duration : 43mn 59s
Bit rate mode : Constant
Bit rate : 192 Kbps
Channel(s) : 2 channels
Channel positions : Front: L R
Sampling rate : 48.0 KHz
Compression mode : Lossy
Stream size : 60.4 MiB (10%)
Alignment : Split accross interleaves
Interleave, duration : 40 ms (1.00 video frame)
Interleave, preload duration : 500 ms




   Похожие торренты   Торрент   Размер 
В этой теме нет новых непрочитанных сообщений. BBC. Вивисекция. Как устроены насекомые / Insect Dissection: How Insects Work (2012) HDTVRip от GeneralFilm | D

121 | 18

612.19 МБ

В этой теме нет новых непрочитанных сообщений. Удивительные пауки / Incredible Spiders (2015) HDTVRip от torrentfilm | Р1

11 | 1

450.32 МБ

В этой теме нет новых непрочитанных сообщений. Удивительные копатели / Incredible Diggers (2015) HDTVRip от torrentfilm | Р1

7 | 3

499.64 МБ

В этой теме нет новых непрочитанных сообщений. Эти кошмарные насекомые / Insects from Hel [01-12] (2004) SATRip от HitWay | P1

19 | 17

3.24 ГБ

В этой теме нет новых непрочитанных сообщений. Эти кошмарные насекомые / Insects from Hel [01-11] (2004) SATRip от HitWay | P1

61 | 32

2.97 ГБ

В этой теме нет новых непрочитанных сообщений. Эти кошмарные насекомые / Insects from Hel [01-09] (2004) SATRip от HitWay | P1

36 | 24

2.43 ГБ

В этой теме нет новых непрочитанных сообщений. Эти кошмарные насекомые / Insects from Hel [01-08] (2004) SATRip от HitWay | P1

12 | 30

2.16 ГБ




Вы не можете начинать темы
Вы не можете отвечать на сообщения
Вы не можете редактировать свои сообщения
Вы не можете удалять свои сообщения
Вы не можете добавлять вложения

Перейти:  
Для Мосгорсуда, Роскомнадзора и рекламодателей: mosgorsud-torrent[собачка]yandex.ru
 Вход
ppkBB3cker v.2 © 2008-2014 @ PPK
[ Time : 0.039s | 16 Queries | GZIP : Off ]

Торрент трекер RUTOR.IN, Не можете зайти на rutor.org? Какой новый адрес рутор? Какое зеркало рутор? Не работает rutor.org и зеркала? Тогда наш торрент специально для вас. Rutor.in неофициальное зеркало rutor. В случае если у Вас заблокирован rutor или вдруг Вы не можете на него зайти, то Вы без труда сможете скачать бесплатно и без рекламы последние новинки кино, игр, сериалов и прочего у нас, на Rutor.in. Не нужно использовать прокси, чтобы зайти на рутор, достаточно воспользоваться нашим ресурсом. Все новые фильмы, игры, сериалы, книги и музыка за 2013 и 2014 годы через торрент бесплатно. Скачивайте фильмы в хорошем качестве, игры для пк, xbox, playstation без регистрации. У нас вы найдете новые Зарубежные сериалы и Русские сериалы 2013, 2014, 2015 годов. Оставайтесь с нами, качайте любимые фильмы, игры, сериалы, книги и музыку.
cron