img image001 image001 image001 image001 image001 image001 image001 image001 image001 image001 image001 image001 image001 image001 image001

Planets Sun Sun Sun
Статистика раздачи
Автор: Nickolas3434 | Размер: 691.69 МБ | Добавлен: 11 июн 2016
Раздают: 33    Качают: 0
Скачать торрент
Скачать торрент
Описание торрента

СообщениеДобавлено: 11 июн 2016 

Информация о фильме
Название: Мир природы - Горы тропических дождей
Оригинальное название: Natural World - The Mountains of the Monsoon
Год выхода: 2009
Жанр: Документальный
Режиссер: Сандеш Кадур
О фильме:
«Остановись, мгновенье! Ты - прекрасно!» - примерно так говорят почти все вдохновенные фотохудожники, для которых фотографирование – не просто ремесло, а творческий процесс. Индийский фотограф Сандеш Кадур более десяти лет снимает самые красивые и загадочные уголки Индии. В документальном фильме «Горы тропических дождей» зрителям представлены фото отчёты Кадура о его путешествии на гряду индийских гор под названием Западные Гаты. Он давно хотел там побывать, и вот наконец-то выпала такая возможность. Больше всего фотографа поразили экзотические редкие животные, обитающие в тех местах, с которыми теперь познакомитесь и вы.
Страна: Великобритания
Студия: BBC
Продолжительность: 00:48:18
Перевод: Профессиональный (одноголосый, закадровый)
Файл
Кодек: XviD
Качество: HDTVRip
Видео: 720x400 (16:9), 25 fps, XviD, 1800 kbps avg, 0.250 bit/pixel
Аудио: 48 kHz, AC3 Dolby Digital, 2 ch, ~192 kbps
Релиз от
Автор Рипа: RockeT
General
Complete name : C:UsersDesktopФильмыBBC_NW_The Mountains of the Monsoon.HDTVRip.by RockeT [Virtus & KazTorrentS].avi
Format : AVI
Format/Info : Audio Video Interleave
File size : 692 MiB
Duration : 48mn 18s
Overall bit rate : 2 002 Kbps
Writing application : VirtualDubMod 1.5.10.3 | www.virtualdub-fr.org || (build 2550/release)
Writing library : VirtualDubMod build 2550/release
Video
ID : 0
Format : MPEG-4 Visual
Format profile : Advanced Simple@L5
Format settings, BVOP : 1
Format settings, QPel : No
Format settings, GMC : No warppoints
Format settings, Matrix : Default (MPEG)
Codec ID : XVID
Codec ID/Hint : XviD
Duration : 48mn 18s
Bit rate : 1 800 Kbps
Width : 720 pixels
Height : 400 pixels
Display aspect ratio : 16:9
Frame rate : 25.000 fps
Color space : YUV
Chroma subsampling : 4:2:0
Bit depth : 8 bits
Scan type : Progressive
Compression mode : Lossy
Bits/(Pixel*Frame) : 0.250
Stream size : 622 MiB (90%)
Writing library : XviD 1.2.1 (UTC 2008-12-04)
Audio
ID : 1
Format : AC-3
Format/Info : Audio Coding 3
Mode extension : CM (complete main)
Format settings, Endianness : Big
Codec ID : 2000
Duration : 48mn 18s
Bit rate mode : Constant
Bit rate : 192 Kbps
Channel(s) : 2 channels
Channel positions : Front: L R
Sampling rate : 48.0 KHz
Compression mode : Lossy
Stream size : 66.4 MiB (10%)
Alignment : Split accross interleaves
Interleave, duration : 40 ms (1.00 video frame)
Interleave, preload duration : 500 ms




   Похожие торренты   Торрент   Размер 
В этой теме нет новых непрочитанных сообщений. BBC: Мир природы. Ошибки природы / Natural World. Natures Misfits (2014) HDTVRip-AVC от Kaztorrents | P1

201 | 29

707.41 МБ

В этой теме нет новых непрочитанных сообщений. BBC: Мир природы. Секреты подземелий майя / Natural World. Secrets of the Maya Underworld (2005) HDTVRip от Kaztorrents | P1

84 | 3

696.68 МБ

В этой теме нет новых непрочитанных сообщений. Живые Пейзажи: Красивейшие горы Земли / Living Landscapes: Earthscapes: World's Most Beautiful Mountains (2009) BDRip от HELLYWOOD

12 | 9

1.28 ГБ

В этой теме нет новых непрочитанных сообщений. BBC: Мир природы. Мамы и детеныши / BBC: The Natural World. Wild Mothers and Babies (2009) SATRip

30 | 3

645.59 МБ

В этой теме нет новых непрочитанных сообщений. BBC: Мир природы. Ковчег сэра Аттенборо / Natural World. Attenborough's Ark (2012) HDTVRip от -=HD-NET=-

170 | 23

699.39 МБ

В этой теме нет новых непрочитанных сообщений. Симфония мира природы / BBC: Natural World Symphony (2005) SATRip

9 | 2

660.84 МБ

В этой теме нет новых непрочитанных сообщений. ВВС: Симфония мира природы / BBC: Natural World Symphony (2005) SATRip

27 | 23

660.84 МБ




Вы не можете начинать темы
Вы не можете отвечать на сообщения
Вы не можете редактировать свои сообщения
Вы не можете удалять свои сообщения
Вы не можете добавлять вложения

Перейти:  
Для Мосгорсуда, Роскомнадзора и рекламодателей: mosgorsud-torrent[собачка]yandex.ru
 Вход
ppkBB3cker v.2 © 2008-2014 @ PPK
[ Time : 0.048s | 16 Queries | GZIP : Off ]

Торрент трекер RUTOR.IN, Не можете зайти на rutor.org? Какой новый адрес рутор? Какое зеркало рутор? Не работает rutor.org и зеркала? Тогда наш торрент специально для вас. Rutor.in неофициальное зеркало rutor. В случае если у Вас заблокирован rutor или вдруг Вы не можете на него зайти, то Вы без труда сможете скачать бесплатно и без рекламы последние новинки кино, игр, сериалов и прочего у нас, на Rutor.in. Не нужно использовать прокси, чтобы зайти на рутор, достаточно воспользоваться нашим ресурсом. Все новые фильмы, игры, сериалы, книги и музыка за 2013 и 2014 годы через торрент бесплатно. Скачивайте фильмы в хорошем качестве, игры для пк, xbox, playstation без регистрации. У нас вы найдете новые Зарубежные сериалы и Русские сериалы 2013, 2014, 2015 годов. Оставайтесь с нами, качайте любимые фильмы, игры, сериалы, книги и музыку.
cron