img image001 image001 image001 image001 image001 image001 image001 image001 image001 image001 image001 image001 image001 image001 image001

Planets Sun Sun Sun
Статистика раздачи
Автор: Nickolas3434 | Размер: 696.68 МБ | Добавлен: 02 июл 2016
Раздают: 77    Качают: 3
Скачать торрент
Скачать торрент
Описание торрента

СообщениеДобавлено: 02 июл 2016 

Информация о фильме
Название: Мир природы. Секреты подземелий майя
Оригинальное название: Natural World. Secrets of the Maya Underworld
Год выхода: 2005
Жанр: Документальный
Режиссер: Тим Мартин
О фильме:
В отличие от других великих цивилизаций, таких как римская или древнеегипетская, империя майя не возникла на берегу великой реки. В действительности на Юкатане не было даже маленькой речки, но зато по всей территории были разбросаны пресноводные озера - сеноты. Индейцы майа верили в о, что они являются тайными вратами в подземный мир. Современные технологии позволили более тщательно исследовать эти озёра, открыв мир запутанных пещер, подземных рек, а также покрытых сталактитами и сталагмитами укромных уголков, где обитают летучие мыши и древнейшие живые организмы. Только сейчас стала проясняться картина зарождения этих подземных водоемов, связанная с появлением и исчезновением кораллового рифа, и ударом огромного астероида, который послужил причиной гибели динозавров. Программа рассказывает о причинах процветания цивилизации майя
Страна: Великобритания
Студия: BBC
Продолжительность: 00:48:40
Перевод: Профессиональный (одноголосый, закадровый)
Файл
Кодек: XviD
Качество: HDTVRip
Видео: 720x400 (16:9), 25 fps, XviD, 1800 kbps avg, 0.250 bit/pixel
Аудио: 48 kHz, AC3 Dolby Digital, 2 ch, ~192 kbps
Релиз от
Автор Рипа: RockeT
General
Complete name : C:UsersНурболатDesktopФильмыBBC_Natural World_Secrets of the Maya Underworld.HDTVRip.by RockeT [Virtus & KazTorrentS].avi
Format : AVI
Format/Info : Audio Video Interleave
File size : 697 MiB
Duration : 48mn 40s
Overall bit rate : 2 001 Kbps
Writing application : VirtualDubMod 1.5.10.3 | www.virtualdub-fr.org || (build 2550/release)
Writing library : VirtualDubMod build 2550/release
Video
ID : 0
Format : MPEG-4 Visual
Format profile : Advanced Simple@L5
Format settings, BVOP : 1
Format settings, QPel : No
Format settings, GMC : No warppoints
Format settings, Matrix : Default (MPEG)
Codec ID : XVID
Codec ID/Hint : XviD
Duration : 48mn 40s
Bit rate : 1 800 Kbps
Width : 720 pixels
Height : 400 pixels
Display aspect ratio : 16:9
Frame rate : 25.000 fps
Color space : YUV
Chroma subsampling : 4:2:0
Bit depth : 8 bits
Scan type : Progressive
Compression mode : Lossy
Bits/(Pixel*Frame) : 0.250
Stream size : 627 MiB (90%)
Writing library : XviD 1.2.1 (UTC 2008-12-04)
Audio
ID : 1
Format : AC-3
Format/Info : Audio Coding 3
Mode extension : CM (complete main)
Format settings, Endianness : Big
Codec ID : 2000
Duration : 48mn 37s
Bit rate mode : Constant
Bit rate : 192 Kbps
Channel(s) : 2 channels
Channel positions : Front: L R
Sampling rate : 48.0 KHz
Compression mode : Lossy
Stream size : 66.8 MiB (10%)
Alignment : Split accross interleaves
Interleave, duration : 40 ms (1.00 video frame)
Interleave, preload duration : 500 ms




   Похожие торренты   Торрент   Размер 
В этой теме нет новых непрочитанных сообщений. BBC: Мир природы. Секреты подземелий майя / BBC: Natural World. Secrets of the Maya Underworld (2005) SATRIp

15 | 10

708.26 МБ

В этой теме нет новых непрочитанных сообщений. BBC: Мир природы. Ошибки природы / Natural World. Natures Misfits (2014) HDTVRip-AVC от Kaztorrents | P1

201 | 29

707.41 МБ

В этой теме нет новых непрочитанных сообщений. BBC: Мир природы - Горы тропических дождей / Natural World - The Mountains of the Monsoon (2009) HDTVRip от Kaztorrents | P1

34 | 6

691.69 МБ

В этой теме нет новых непрочитанных сообщений. BBC: Мир природы. Андские медведи – призраки леса / The Natural World. Spectacled Bears (2008) HDTVRip от Kaztorrents | P1

12 | 1

698.65 МБ

В этой теме нет новых непрочитанных сообщений. Симфония мира природы / BBC: Natural World Symphony (2005) SATRip

9 | 2

660.84 МБ

В этой теме нет новых непрочитанных сообщений. ВВС: Симфония мира природы / BBC: Natural World Symphony (2005) SATRip

27 | 23

660.84 МБ

В этой теме нет новых непрочитанных сообщений. BBC: Секреты ухода за волосами / Hair Care Secrets (2017) HDTVRip от Kaztorrents | P2

15 | 1

769.51 МБ




Вы не можете начинать темы
Вы не можете отвечать на сообщения
Вы не можете редактировать свои сообщения
Вы не можете удалять свои сообщения
Вы не можете добавлять вложения

Перейти:  
Для Мосгорсуда, Роскомнадзора и рекламодателей: mosgorsud-torrent[собачка]yandex.ru
 Вход
ppkBB3cker v.2 © 2008-2014 @ PPK
[ Time : 0.039s | 16 Queries | GZIP : Off ]

cron